[Tình Cảm | 1 link ] Sayonara Itsuka 2010 BluRay 720p x264 AC3-Lafayette - Bao Giờ Chia Tay

Thảo luận trong 'Fshare.vn' bắt đầu bởi dark_devil_90, 20/7/12.

  1. dark_devil_90

    dark_devil_90 Active Member

    Tham gia ngày:
    9/12/09
    Bài viết:
    2,698
    Đã được thích:
    11
    Điểm thành tích:
    38
    Tiền:
    795 CR

    Sayonara Itsuka 2010 BluRay 720p x264 AC3-Lafayette - Bao Giờ Chia Tay


    [​IMG]


    [​IMG]

    Mã:
    Complete name : Sayonara.Itsuka.2010.BluRay.720p.x264.AC3-Lafayette.mkv
          Format : Matroska
          Format version : Version 2
          File size : 2.60 GiB
          Duration : 2h 13mn
          Overall bit rate : 2 780 Kbps
          Encoded date : UTC 2010-08-11 13:03:33
          Writing application : mkvmerge v3.0.0 ('Hang up your Hang-Ups') ▒α╥δ╙┌ Dec 12 2009 15:20:35
          Writing library : libebml v0.7.9 + libmatroska v0.8.1
       Video #1
          ID : 1
          Format : AVC
          Format/Info : Advanced Video Codec
          Format profile : High@L4.1
          Format settings, CABAC : Yes
          Format settings, ReFrames : 4 frames
          Codec ID : V_MPEG4/ISO/AVC
          Duration : 2h 13mn
          Bit rate : 2 333 Kbps
          Width : 1 280 pixels
          Height : 720 pixels
          Display aspect ratio : 16:9
          Frame rate : 23.976 fps
          Color space : YUV
          Chroma subsampling : 4:2:0
          Bit depth : 8 bits
          Scan type : Progressive
          Bits/(Pixel*Frame) : 0.106
          Stream size : 2.13 GiB (82%)
          Writing library : x264 core 98 r1649 20cbe10
          Encoding settings : cabac=1 / ref=5 / deblock=1:-3:-2 / analyse=0x3:0x113 / me=umh / subme=8 / psy=1 / psy_rd=1.00:0.10 / mixed_ref=1 / me_range=32 / chroma_me=1 / trellis=2 / 8x8dct=1 / cqm=0 / deadzone=21,11 / fast_pskip=0 / chroma_qp_offset=-2 / threads=6 / sliced_threads=0 / nr=0 / decimate=0 / interlaced=0 / constrained_intra=0 / bframes=3 / b_pyramid=1 / b_adapt=2 / b_bias=0 / direct=1 / weightb=1 / weightp=2 / keyint=250 / keyint_min=25 / scenecut=40 / intra_refresh=0 / rc_lookahead=40 / rc=2pass / mbtree=1 / bitrate=2333 / ratetol=1.0 / qcomp=0.60 / qpmin=10 / qpmax=51 / qpstep=4 / cplxblur=20.0 / qblur=0.5 / ip_ratio=1.40 / aq=1:1.00
          Language : English
          Default : No
          Forced : No
       Audio #2
          ID : 2
          Format : AC-3
          Format/Info : Audio Coding 3
          Mode extension : CM (complete main)
          Format settings, Endianness : Big
          Codec ID : A_AC3
          Duration : 2h 13mn
          Bit rate mode : Constant
          Bit rate : 448 Kbps
          Channel(s) : 6 channels
          Channel positions : Front: L C R, Side: L R, LFE
          Sampling rate : 48.0 KHz
          Bit depth : 16 bits
          Compression mode : Lossy
          Stream size : 428 MiB (16%)
          Default : Yes
          Forced : No
       Text #3
          ID : 3
          Format : UTF-8
          Codec ID : S_TEXT/UTF8
          Codec ID/Info : UTF-8 Plain Text
          Title : ╓╨╬─
          Default : Yes
          Forced : No
     
    

    [​IMG]


    [​IMG]

    [​IMG] [​IMG] [​IMG] [​IMG] [​IMG] [​IMG]

    [​IMG]

    [​IMG]

    1 link

    [HIDE]
    Mã:
    http://www.fshare.vn/file/TQYAC449XT
    
    [/HIDE]


    [​IMG]

    Mã:
    http://subscene.com/Sayonara-Itsuka/subtitles-85558.aspx
    
    [​IMG]

    [video=youtube;BnvAe8y5KCc]http://www.youtube.com/watch?v=BnvAe8y5KCc[/video]

    [​IMG]

    Mã:
    [B][SIZE=4][COLOR=purple]Dark_Devil_90@HDM[/COLOR][/SIZE][/B]
    
     

Chia sẻ trang này