[MULTI] Titans S01 - S02 1080p NF WEB-DL DDP5.1 x264-HDVN ~ Biệt đội Titans (Full Vietsub)

Thảo luận trong 'Phim bộ - Series' bắt đầu bởi adm820, 11/1/20.

Tags
  1. adm820

    adm820 Moderator Thành viên BQT

    Tham gia ngày:
    1/12/10
    Bài viết:
    7,121
    Đã được cảm ơn:
    163,537
    Giới tính:
    Nam
    [​IMG]

    upload_2020-1-11_21-50-54.png

    upload_2020-1-11_21-51-16.png


    Mã:

    General
    
    	

    Unique ID : 296561607699300074051631790512596581202 (0xDF1BB024DB01B93D0BE409BA4AF3FB52) Complete name : C:\Users\Administrator\Documents\Titans.S02E13.1080p.NF.WEB-DL.DDP5.1.x264-HDVN.mkv Format : Matroska Format version : Version 4 File size : 1.70 GiB Duration : 50 min 13 s Overall bit rate mode : Variable Overall bit rate : 4 834 kb/s Encoded date : UTC 2020-01-11 14:46:53 Writing application : mkvmerge v42.0.0 ('Overtime') 64-bit Writing library : libebml v1.3.10 + libmatroska v1.5.2 Video ID : 1 Format : AVC Format/Info : Advanced Video Codec Format profile : Main@L4 Format settings : CABAC / 3 Ref Frames Format settings, CABAC : Yes Format settings, Reference : 3 frames Codec ID : V_MPEG4/ISO/AVC Duration : 50 min 13 s Bit rate mode : Variable Bit rate : 4 220 kb/s Maximum bit rate : 6 330 kb/s Width : 1 920 pixels Height : 1 080 pixels Display aspect ratio : 16:9 Frame rate mode : Constant Frame rate : 23.976 (24000/1001) FPS Color space : YUV Chroma subsampling : 4:2:0 Bit depth : 8 bits Scan type : Progressive Bits/(Pixel*Frame) : 0.085 Stream size : 1.43 GiB (84%) Writing library : x264 core 148 r2715 7e75228 Encoding settings : cabac=1 / ref=3 / deblock=1:0:0 / analyse=0x1:0x111 / me=umh / subme=10 / psy=1 / psy_rd=1.00:0.00 / mixed_ref=1 / me_range=24 / chroma_me=1 / trellis=2 / 8x8dct=0 / cqm=0 / deadzone=21,11 / fast_pskip=1 / chroma_qp_offset=-2 / threads=6 / lookahead_threads=1 / sliced_threads=0 / nr=0 / decimate=1 / interlaced=0 / bluray_compat=0 / stitchable=1 / constrained_intra=0 / bframes=2 / b_pyramid=0 / b_adapt=2 / b_bias=0 / direct=3 / weightb=1 / open_gop=0 / weightp=2 / keyint=250 / keyint_min=23 / scenecut=0 / intra_refresh=0 / rc_lookahead=48 / rc=2pass / mbtree=1 / bitrate=4220 / ratetol=1.0 / qcomp=0.50 / qpmin=6 / qpmax=51 / qpstep=4 / cplxblur=20.0 / qblur=0.5 / vbv_maxrate=6330 / vbv_bufsize=8440 / nal_hrd=vbr / filler=0 / ip_ratio=1.40 / aq=1:1.00 Default : Yes Forced : No Audio #1 ID : 2 Format : E-AC-3 Format/Info : Enhanced AC-3 Commercial name : Dolby Digital Plus Codec ID : A_EAC3 Duration : 50 min 13 s Bit rate mode : Constant Bit rate : 640 kb/s Channel(s) : 6 channels Channel layout : L R C LFE Ls Rs Sampling rate : 48.0 kHz Frame rate : 31.250 FPS (1536 SPF) Compression mode : Lossy Stream size : 230 MiB (13%) Title : English [Original] Language : English Service kind : Complete Main Default : Yes Forced : No Audio #2 ID : 3 Format : E-AC-3 Format/Info : Enhanced AC-3 Commercial name : Dolby Digital Plus Codec ID : A_EAC3 Duration : 50 min 13 s Bit rate mode : Constant Bit rate : 128 kb/s Channel(s) : 2 channels Channel layout : L R Sampling rate : 48.0 kHz Frame rate : 31.250 FPS (1536 SPF) Compression mode : Lossy Stream size : 46.0 MiB (3%) Title : English [Original] Language : English Service kind : Complete Main Default : No Forced : No Text #1 ID : 4 Format : UTF-8 Codec ID : S_TEXT/UTF8 Codec ID/Info : UTF-8 Plain Text Duration : 2 s 85 ms Bit rate : 145 b/s Count of elements : 1 Stream size : 38.0 Bytes (0%) Title : Forced Language : English Default : No Forced : Yes Text #2 ID : 5 Format : UTF-8 Codec ID : S_TEXT/UTF8 Codec ID/Info : UTF-8 Plain Text Duration : 49 min 15 s Bit rate : 59 b/s Count of elements : 559 Stream size : 21.5 KiB (0%) Title : Vietnamese Language : Vietnamese Default : Yes Forced : No
    [​IMG] [​IMG] [​IMG]




    Bộ phim đc tải từ Netflix , chất lượng đẹp và có sẵn phụ đề tiếng Việt

    Link tải

    Nhấn nút Cảm ơn (dưới chân bài) để thấy link!



     
  2. Rin9999

    Rin9999 New Member

    Tham gia ngày:
    9/12/18
    Bài viết:
    13
    Đã được cảm ơn:
    1
    cảm ơn bác vì share bộ này, em down đc hết r mà còn E08 của Season 2 chưa down đc, bác có thể check lại k ạ
     

Chia sẻ trang này