[MF] TNCD499: Minh Tuyết - Yêu Không Nuối Tiếc (2011) [FLAC] {VTMT}

Thảo luận trong 'Nhạc Việt Nam' bắt đầu bởi doanvanhuy, 14/12/11.

  1. doanvanhuy

    doanvanhuy Well-Known Member

    Tham gia ngày:
    14/5/09
    Bài viết:
    1,974
    Đã được cảm ơn:
    3,352
    Điểm thành tích:
    113
    Tiền:
    1,131 CR
    TNCD499: Minh Tuyết - Yêu Không Nuối Tiếc (2011) [FLAC][VTMT]


    [​IMG]

    [​IMG]

    [​IMG]


    [​IMG]

    Mã:
    [size="4"][color="blue"][FONT="Times New Roman"]
    
    Artist...............: Minh Tuyết
    
    Album................: Yêu Không Nuối Tiếc
    
    Genre................: Pop
    
    Source...............: CD
    
    Year.................: 2011
    
    Label................: Thuy Nga #499
    
    Ripper...............: Exact Audio Copy V0.99 prebeta 5 (Secure Mode)
    
    
    Quality..............: Lossless (avg. compression: 64 %)
    
    
    
    Channels.............: Stereo / 44100 HZ / 16 Bit
    
    Included.............: NFO, M3U, LOG, CUE
    
    Covers...............: Front, Back, Disc, Inside
    [/FONT][/size][/color]
    Mã:
    Exact Audio Copy V0.99 prebeta 5 from 4. May 2009
    
    EAC extraction logfile from 10. December 2011, 20:25
    
    Minh Tuyet / Yeu Khong Nuoi Tiec
    
    Used drive  : TSSTcorpCDDVDW TS-H653N   Adapter: 2  ID: 1
    
    Read mode               : Secure
    Utilize accurate stream : Yes
    Defeat audio cache      : Yes
    Make use of C2 pointers : No
    
    Read offset correction                      : 6
    Overread into Lead-In and Lead-Out          : No
    Fill up missing offset samples with silence : Yes
    Delete leading and trailing silent blocks   : No
    Null samples used in CRC calculations       : Yes
    Used interface                              : Native Win32 interface for Win NT & 2000
    Gap handling                                : Appended to previous track
    
    Used output format              : User Defined Encoder
    Selected bitrate                : 1024 kBit/s
    Quality                         : High
    Add ID3 tag                     : No
    Command line compressor         : C:\Program Files\FLAC\flac.exe
    Additional command line options : -8 -V -T "ARTIST=%a" -T "TITLE=%t" -T "ALBUM=%g" -T "DATE=%y" -T "TRACKNUMBER=%n" -T "TOTALTRACKS=%x" -T "GENRE=%m" -T "ALBUM ARTIST=%v" -T "ALBUMARTIST=%v" -T "COMMENT=[VTMT], EAC V0.99 prebeta 5, Secure Mode, Test & Copy,
    
    
    TOC of the extracted CD
    
         Track |   Start  |  Length  | Start sector | End sector 
        ---------------------------------------------------------
            1  |  0:00.00 |  4:58.45 |         0    |    22394   
            2  |  4:58.45 |  4:19.41 |     22395    |    41860   
            3  |  9:18.11 |  4:38.10 |     41861    |    62720   
            4  | 13:56.21 |  4:21.53 |     62721    |    82348   
            5  | 18:17.74 |  4:23.20 |     82349    |   102093   
            6  | 22:41.19 |  4:26.20 |    102094    |   122063   
            7  | 27:07.39 |  4:36.07 |    122064    |   142770   
            8  | 31:43.46 |  4:29.08 |    142771    |   162953   
            9  | 36:12.54 |  4:57.36 |    162954    |   185264   
           10  | 41:10.15 |  4:48.57 |    185265    |   206921   
    
    
    Track  1
    
         Filename F:\VTMT\Minh Tuyet - Yeu Khong Nuoi Tiec (2011) [FLAC]\01 - Tinh Khong La Mo.wav
    
         Pre-gap length  0:00:02.00
    
         Peak level 94.3 %
         Track quality 100.0 %
         Test CRC ED0869D7
         Copy CRC ED0869D7
         Track not present in AccurateRip database
         Copy OK
    
    Track  2
    
         Filename F:\VTMT\Minh Tuyet - Yeu Khong Nuoi Tiec (2011) [FLAC]\02 - Yeu Khong Nuoi Tiec.wav
    
         Pre-gap length  0:00:02.00
    
         Peak level 94.3 %
         Track quality 100.0 %
         Test CRC E2BBE0BA
         Copy CRC E2BBE0BA
         Track not present in AccurateRip database
         Copy OK
    
    Track  3
    
         Filename F:\VTMT\Minh Tuyet - Yeu Khong Nuoi Tiec (2011) [FLAC]\03 - Trai Tim Tat Nguyen.wav
    
         Pre-gap length  0:00:02.00
    
         Peak level 94.3 %
         Track quality 100.0 %
         Test CRC 8E1A5546
         Copy CRC 8E1A5546
         Track not present in AccurateRip database
         Copy OK
    
    Track  4
    
         Filename F:\VTMT\Minh Tuyet - Yeu Khong Nuoi Tiec (2011) [FLAC]\04 - Yeu Nhau Sao Khong Noi.wav
    
         Pre-gap length  0:00:02.00
    
         Peak level 94.3 %
         Track quality 100.0 %
         Test CRC 85B733B6
         Copy CRC 85B733B6
         Track not present in AccurateRip database
         Copy OK
    
    Track  5
    
         Filename F:\VTMT\Minh Tuyet - Yeu Khong Nuoi Tiec (2011) [FLAC]\05 - Em Di Qua De Lai.wav
    
         Pre-gap length  0:00:02.00
    
         Peak level 94.3 %
         Track quality 100.0 %
         Test CRC 98CFF1A0
         Copy CRC 98CFF1A0
         Track not present in AccurateRip database
         Copy OK
    
    Track  6
    
         Filename F:\VTMT\Minh Tuyet - Yeu Khong Nuoi Tiec (2011) [FLAC]\06 - Em Nho Anh Vo Cung.wav
    
         Pre-gap length  0:00:02.00
    
         Peak level 94.3 %
         Track quality 100.0 %
         Test CRC FDC53405
         Copy CRC FDC53405
         Track not present in AccurateRip database
         Copy OK
    
    Track  7
    
         Filename F:\VTMT\Minh Tuyet - Yeu Khong Nuoi Tiec (2011) [FLAC]\07 - Co Nho Tinh Dau.wav
    
         Pre-gap length  0:00:02.00
    
         Peak level 94.3 %
         Track quality 100.0 %
         Test CRC 6639CCBA
         Copy CRC 6639CCBA
         Track not present in AccurateRip database
         Copy OK
    
    Track  8
    
         Filename F:\VTMT\Minh Tuyet - Yeu Khong Nuoi Tiec (2011) [FLAC]\08 - Van Muon Yeu Tron Doi.wav
    
         Pre-gap length  0:00:02.00
    
         Peak level 94.3 %
         Track quality 100.0 %
         Test CRC 8A96721F
         Copy CRC 8A96721F
         Track not present in AccurateRip database
         Copy OK
    
    Track  9
    
         Filename F:\VTMT\Minh Tuyet - Yeu Khong Nuoi Tiec (2011) [FLAC]\09 - Em Biet Khong Van Vuong.wav
    
         Pre-gap length  0:00:02.00
    
         Peak level 94.3 %
         Track quality 100.0 %
         Test CRC 03D7C68D
         Copy CRC 03D7C68D
         Track not present in AccurateRip database
         Copy OK
    
    Track 10
    
         Filename F:\VTMT\Minh Tuyet - Yeu Khong Nuoi Tiec (2011) [FLAC]\10 - Vu Dieu Tinh Say.wav
    
         Pre-gap length  0:00:02.00
    
         Peak level 94.3 %
         Track quality 100.0 %
         Test CRC C4886E6A
         Copy CRC C4886E6A
         Track not present in AccurateRip database
         Copy OK
    
    
    None of the tracks are present in the AccurateRip database
    
    No errors occurred
    
    End of status report
    
    [​IMG]
    Mã:
    [CENTER][FONT="Times New Roman"][SIZE="4"][COLOR="Blue"]TrackList:
    
    
    01. Tình không là mơ
    
    02. Yêu không nuối tiếc
    
    03. Trái tim tật nguyền - hát với Bằng Kiều
    
    04. Yêu nhau sao không nói
    
    05. Em đi qua để lại
    
    06. Em nhớ anh vô cùng
    
    07. Có nhớ tình đầu
    
    08. Vẫn muốn yêu trọn đời
    
    09. Em biết không nên vấn vương
    
    10. Vũ điệu tình say - hát với Lương Tùng Quang
    
    
    --------&&&&& DoanVanHuy - HDMovie.vn &&&&&--------
    [/COLOR][/SIZE][/FONT][/CENTER]
    [​IMG]
    200MB/Link - 5% Recovery Record
    [​IMG]
    Nhấn nút Cảm ơn (dưới chân bài) để thấy link!


    [​IMG]
    Nhấn nút Cảm ơn (dưới chân bài) để thấy link!


    [​IMG]
    Mã:
    [CENTER]hdmovie.vn[/CENTER]

    Thanks at1863 - Viettorrent.vn
     
    Chỉnh sửa cuối: 14/12/11
  2. tusontay

    tusontay Well-Known Member

    Tham gia ngày:
    2/4/10
    Bài viết:
    22,242
    Đã được cảm ơn:
    91,791
    Điểm thành tích:
    113
    Giới tính:
    Nam
    Nghề nghiệp:
    7 Nghề
    Nơi ở:
    Viet Nam
    Tiền:
    4,452 CR
    Ðề: TNCD499: Minh Tuyết - Yêu Không Nuối Tiếc (2011) [FLAC][VTMT]

    Lão nào chưa đấu giá được em Tuyết thì vào kéo này! :D
     
  3. hoasimtim

    hoasimtim Well-Known Member

    Tham gia ngày:
    7/9/09
    Bài viết:
    23,851
    Đã được cảm ơn:
    612
    Điểm thành tích:
    113
    Giới tính:
    Nam
    Nghề nghiệp:
    KTV Phá Điện Thoại
    Nơi ở:
    Neo - Yên Dũng - Bắc Giang
    Web:
    Tiền:
    493 CR
    Ðề: TNCD499: Minh Tuyết - Yêu Không Nuối Tiếc (2011) [FLAC][VTMT]

    Bác cũng kéo đi, bác chưa đấu giá được mà;))
     
  4. tusontay

    tusontay Well-Known Member

    Tham gia ngày:
    2/4/10
    Bài viết:
    22,242
    Đã được cảm ơn:
    91,791
    Điểm thành tích:
    113
    Giới tính:
    Nam
    Nghề nghiệp:
    7 Nghề
    Nơi ở:
    Viet Nam
    Tiền:
    4,452 CR
    Ðề: TNCD499: Minh Tuyết - Yêu Không Nuối Tiếc (2011) [FLAC][VTMT]

    "Phờ Lờ A Xê" thì cũng không hứng thú lắm! :D
     
  5. hoasimtim

    hoasimtim Well-Known Member

    Tham gia ngày:
    7/9/09
    Bài viết:
    23,851
    Đã được cảm ơn:
    612
    Điểm thành tích:
    113
    Giới tính:
    Nam
    Nghề nghiệp:
    KTV Phá Điện Thoại
    Nơi ở:
    Neo - Yên Dũng - Bắc Giang
    Web:
    Tiền:
    493 CR
    Ðề: TNCD499: Minh Tuyết - Yêu Không Nuối Tiếc (2011) [FLAC][VTMT]

    Cái hôm đấu giá là Nờ Rờ Gu hả bác;))
     
  6. tusontay

    tusontay Well-Known Member

    Tham gia ngày:
    2/4/10
    Bài viết:
    22,242
    Đã được cảm ơn:
    91,791
    Điểm thành tích:
    113
    Giới tính:
    Nam
    Nghề nghiệp:
    7 Nghề
    Nơi ở:
    Viet Nam
    Tiền:
    4,452 CR
    Ðề: TNCD499: Minh Tuyết - Yêu Không Nuối Tiếc (2011) [FLAC][VTMT]

    "Nờ Rờ Gờ + phun Át Quốc" Tâm Đoan xinh như... con ngan luôn! :))
     
  7. doanvanhuy

    doanvanhuy Well-Known Member

    Tham gia ngày:
    14/5/09
    Bài viết:
    1,974
    Đã được cảm ơn:
    3,352
    Điểm thành tích:
    113
    Tiền:
    1,131 CR
    Ðề: TNCD499: Minh Tuyết - Yêu Không Nuối Tiếc (2011) [FLAC][VTMT]

    Album này cũng đủ Át wuốc nhé các bác. Nếu chưa có hàng NRG ngơn hơn thì FLAC thì cũng tốt lắm rồi. :D
     
  8. hoasimtim

    hoasimtim Well-Known Member

    Tham gia ngày:
    7/9/09
    Bài viết:
    23,851
    Đã được cảm ơn:
    612
    Điểm thành tích:
    113
    Giới tính:
    Nam
    Nghề nghiệp:
    KTV Phá Điện Thoại
    Nơi ở:
    Neo - Yên Dũng - Bắc Giang
    Web:
    Tiền:
    493 CR
    Ðề: TNCD499: Minh Tuyết - Yêu Không Nuối Tiếc (2011) [FLAC][VTMT]

    Phờ lờ xê với em là cũng ngon rồi:)
     
  9. gianghuy2502

    gianghuy2502 Member

    Tham gia ngày:
    6/8/09
    Bài viết:
    220
    Đã được cảm ơn:
    24
    Điểm thành tích:
    18
    Tiền:
    625 CR
    Ðề: TNCD499: Minh Tuyết - Yêu Không Nuối Tiếc (2011) [FLAC] {VTMT}

    Bác chủ ơi! có cái cover này khá hơn tí nữa ko? cho e xin với. Thanks!
     
  10. hoasimtim

    hoasimtim Well-Known Member

    Tham gia ngày:
    7/9/09
    Bài viết:
    23,851
    Đã được cảm ơn:
    612
    Điểm thành tích:
    113
    Giới tính:
    Nam
    Nghề nghiệp:
    KTV Phá Điện Thoại
    Nơi ở:
    Neo - Yên Dũng - Bắc Giang
    Web:
    Tiền:
    493 CR
    Ðề: TNCD499: Minh Tuyết - Yêu Không Nuối Tiếc (2011) [FLAC] {VTMT}

    Bác đọc kỹ #7 nhé:D
     
  11. doanvanhuy

    doanvanhuy Well-Known Member

    Tham gia ngày:
    14/5/09
    Bài viết:
    1,974
    Đã được cảm ơn:
    3,352
    Điểm thành tích:
    113
    Tiền:
    1,131 CR
    Ðề: TNCD499: Minh Tuyết - Yêu Không Nuối Tiếc (2011) [FLAC] {VTMT}

    Bên trong folder có đó bác. bác kéo về sẽ thấy ak. :D
     
  12. itlover

    itlover Member

    Tham gia ngày:
    15/7/10
    Bài viết:
    65
    Đã được cảm ơn:
    6
    Điểm thành tích:
    8
    Nơi ở:
    Vietnam
    Tiền:
    439 CR
    Ðề: TNCD499: Minh Tuyết - Yêu Không Nuối Tiếc (2011) [FLAC] {VTMT}

    Có WAV hay NRG thì hay quá! Dù sao cũng cảm ơn bác.
     
  13. doanvanhuy

    doanvanhuy Well-Known Member

    Tham gia ngày:
    14/5/09
    Bài viết:
    1,974
    Đã được cảm ơn:
    3,352
    Điểm thành tích:
    113
    Tiền:
    1,131 CR
    Ðề: TNCD499: Minh Tuyết - Yêu Không Nuối Tiếc (2011) [FLAC] {VTMT}

    Mình chỉ FLAC thôi.
     
  14. naxeko

    naxeko New Member

    Tham gia ngày:
    9/4/10
    Bài viết:
    4,599
    Đã được cảm ơn:
    4,673
    Điểm thành tích:
    0
    Nghề nghiệp:
    Engi...
    Nơi ở:
    Việt Nam. Sinh ra, sống và làm việc tại Sài Gòn.
    Tiền:
    2,064 CR
    Ðề: TNCD499: Minh Tuyết - Yêu Không Nuối Tiếc (2011) [FLAC] {VTMT}

    Mình bây giờ đâm ra khoái FLAC, nhất là sau khi rip thành công bằng EAC:)
     
  15. conghieu1978

    conghieu1978 Moderator

    Tham gia ngày:
    20/5/11
    Bài viết:
    5,994
    Đã được cảm ơn:
    319
    Điểm thành tích:
    83
    Giới tính:
    Nam
    Nghề nghiệp:
    Trồng rau sạch
    Nơi ở:
    Quanh co khó tả dễ vào Lầm Thôn
    Tiền:
    409 CR
    Ðề: TNCD499: Minh Tuyết - Yêu Không Nuối Tiếc (2011) [FLAC][VTMT]

    Em thì cái nào cũng giống như cái nào. Bác Cứ flac đi em kéo hết.
     
  16. doanvanhuy

    doanvanhuy Well-Known Member

    Tham gia ngày:
    14/5/09
    Bài viết:
    1,974
    Đã được cảm ơn:
    3,352
    Điểm thành tích:
    113
    Tiền:
    1,131 CR
    Ðề: TNCD499: Minh Tuyết - Yêu Không Nuối Tiếc (2011) [FLAC] {VTMT}

    Bác rip nhiều sẽ quen thôi. Cái CD Asia 219 là bác rip cho bác Sping ak. :D
     
  17. naxeko

    naxeko New Member

    Tham gia ngày:
    9/4/10
    Bài viết:
    4,599
    Đã được cảm ơn:
    4,673
    Điểm thành tích:
    0
    Nghề nghiệp:
    Engi...
    Nơi ở:
    Việt Nam. Sinh ra, sống và làm việc tại Sài Gòn.
    Tiền:
    2,064 CR
    Ðề: TNCD499: Minh Tuyết - Yêu Không Nuối Tiếc (2011) [FLAC] {VTMT}

    Hả??? Sao bác lại biết???:)
     
  18. maulanh69

    maulanh69 Banned

    Tham gia ngày:
    9/9/09
    Bài viết:
    82
    Đã được cảm ơn:
    13
    Điểm thành tích:
    0
    Nghề nghiệp:
    IT
    Nơi ở:
    vn
    Tiền:
    374 CR
    Ðề: TNCD499: Minh Tuyết - Yêu Không Nuối Tiếc (2011) [FLAC] {VTMT}

    Nhìn hình sao thèm waaaaaaaaaaaaaaaa . Minh Tuyêt đã bị suk về theo đường Internet
     
    Chỉnh sửa cuối: 14/12/11
  19. doanvanhuy

    doanvanhuy Well-Known Member

    Tham gia ngày:
    14/5/09
    Bài viết:
    1,974
    Đã được cảm ơn:
    3,352
    Điểm thành tích:
    113
    Tiền:
    1,131 CR
    Ðề: TNCD499: Minh Tuyết - Yêu Không Nuối Tiếc (2011) [FLAC] {VTMT}

    cái gì em chả biết. :D . Em down cả 2 bản NRG và FLAC mà. hihi. =))
     
  20. vanlang+

    vanlang+ Active Member

    Tham gia ngày:
    7/4/11
    Bài viết:
    3,687
    Đã được cảm ơn:
    49
    Điểm thành tích:
    38
    Nghề nghiệp:
    No Job
    Nơi ở:
    Vietnamese
    Web:
    Tiền:
    66 CR
    Ðề: TNCD499: Minh Tuyết - Yêu Không Nuối Tiếc (2011) [FLAC] {VTMT}

    Cái này thì bó chiếu rồi
     

Chia sẻ trang này