[Tội phạm|Hành động] Lồng đèn da người - Human Lanterns 1982.1080p.BluRay. x264.NPW

Thảo luận trong 'Fshare.vn' bắt đầu bởi HLIEU, 1/12/17.

  1. HLIEU

    HLIEU Well-Known Member

    Tham gia ngày:
    12/2/09
    Bài viết:
    323
    Đã được cảm ơn:
    14,337
    Điểm thành tích:
    113
    Giới tính:
    Nam
    Nghề nghiệp:
    Bác sị Y Khoa chuyên Nội khoa
    Nơi ở:
    Việt Nam
    Tiền:
    1,737 CR
    The human lantern.1982.1080p.x264.NPW


    ( Trần quang Thái, Lưu Vĩnh, La Liệt)= 9.92GB-5.35GB

    [​IMG]

    [​IMG]

    Đây là một phim thuộc loại hành động,tình cảmh hấp dẫn kinh sợ từ đầu đến cuối qua tài diễn


    xuất của 3 tài tử lừng danh của màn ảnh HK là Trần Quang Thái, Lưu Vĩnh, La liệt

    Đàm tam gia và Long công tử là 2 người giàu có nhất vùng, luôn ghen tị, đánh nahu vì danh lợi. Long công tử năm nay muốn làm 1 lồng đèn đắt giá qua mặt Đàm tam gia, mới nhờ Thôi lão đầu. nhưng lão này nát rượi nhờ người bí mật là Triêu xuân Phong, một bạn cũù của Long công tử..Hắn chỉ nói khi nào xong mới báo chứ không được xem trước..
    Không ngờ tênn Triệu này hận thù xưa ấm mưu phục hận Long công tử, hắn ấm thần bắt cóc 3 cô nàng Diễm Châu , em của Đàm tam gia, và vợ của Long công tử, Hắn dùng da 3 cô nàng làm lồng đèn cho Long công tủ, Sự mất tíchn lượt3 người khiến 2 đại gia nghi kỵ lẫn nhau Phan bộ đầu cũng không tim ra anh mối.
    Cuối cùng,Long công tử mới biết Đàm tam gia thuê sát thủ giết mình nhưng thất bại và sát thủ này bị bêu đầu.tại chợ.Lúc ấy,Long công tử,Phan bộ đàu mới nghi đến Tiệu xuân Phong..
    Trận chiến sau cùng giữ 3 người với tên làm lồng đen da người diễn nhua ác liệt Đàm tam gia và tên ác ông Phong chết. Long công tử bị cháy suýt chết hiến toàn bộ tài sản cho người nghèo và bỏ ra đi.

    Nngoài hình ảnh đẹp, rõ ,cốt truyện thật gây cấn, rất xứng đáng lưu mãi trong số các phim kinh điển hay nhất mọi ời đại; chắc rồi đây bạn sẽ còn muốn xem xem lại nhiều lần nữa.

    Sub Việtệtđược chỉnh lại tona bộ bởi HLIEUng được tích hợp luôn vào phim không để riêng. Dù sao, file srt này không phải hard code nên bạn có thể tách dễ dàng bằng cách dùng MkvextractGUI.exe trong MKV toolnix.
    Hy vọng được các bạn mê say bộ phim hấp dẫn này sẽ cho nhiều comment(mỗi ngày /chỉ cần 1 người) và bài khỏi bị trôi đi đâu mất tiêu, giúp các bạn nào biết trể còn tìm ra được phim này. Nhớ là bạn a like chỉ tải phim chưa đủ đâu, mà xin nhớ please comment giùm tác giả khi thấy phim nào quá hay để còn giúp bạn bè khác nữa có cơ hội xem được phim hay như mình



    [​IMG]

    6.5/10

    Trên 637 người xem​


    [​IMG]



    Thể loại: Hành động, Tội phạm

    Hãng phim Shaw Brothers

    Sản xuất năm 1982

    Đạo diễn Tôn Trọng

    Vai chính:

    Trần Quang Thái vai Đàm tam gia

    La liệt vai Triệu Xuân Phong

    Lưu Vĩnh Vai Long công tử

    Tôn Kiến vai Phan bộ đầu


    [​IMG]



    a)General Video 1080p

    File size : 9.98 GiB

    Duration : 1 h 34 min

    Overall bit rate : 15.1 Mb/s

    Format : AVC

    Format/Info : Advanced Video Codec

    Bit rate : 15.0 Mb/s

    Width : 1 920 pixels

    Height : 1 080 pixels

    Display aspect ratio : 16:9

    Frame rate mode : Constant

    Frame rate : 23.976 (24000/1001) FPS

    Stream size : 9.92 GiB (99%)

    b) general Vdeo 720p:

    File size : 5.35 GiB

    Duration : 1 h 34 min

    Overall bit rate mode : Variable

    Overall bit rate : 8 108 kb/s

    Format/Info : Advanced Video Codec

    Bit rate : 8 000 kb/s

    Width : 1 280 pixels

    Height : 720 pixels

    Display aspect ratio : 16:9

    Frame rate mode : Constant

    Frame rate : 23.976 (24000/1001) FPS

    Stream size : 5.29 GiB (99%)

    c)Audio
    Format : AC3

    Bit rate : 89.2 kb/s

    Maximum bit rate : 320 kb/s

    Channel(s) : 62 channels

    Channel(s)_Original : 6 channels

    Channel positions : Front: L C R, Side: L R, LFE

    Sampling rate : 48.0 kHz

    Stream size : 60.3 MiB (1%)

    d)-Subtitles: Vietnamese non hard code, [/QUOTE]



    [​IMG]
    Human lantern 1-2.jpg
    Human lantern 3-4.jpg
    Human lantern5-6.jpg
    Human lantern 7-8.jpg
    Human lantern 9-10.jpg
    Human lantern11-12.jpg
    Human lantern 13-14.jpg
    Human lantern 15-16.jpg

    [​IMG]

    Human lantern 1080p

    Nhấn nút Cảm ơn (dưới chân bài) để thấy link!


    English sub

    https://www.fshare.vn/file/7CTXU8BMVAIF

    bản 720p

    Nhấn nút Cảm ơn (dưới chân bài) để thấy link!


    Đã có bản 720p phim này ở mục download fshare, bạn nào thích bản 720p cứ chọn tải link Fshare

    Danh sách các phim 1080p mà HLIEU đã post

    HLIEU
     
    #1 +2 CR
  2. Ktpnguyen

    Ktpnguyen New Member

    Tham gia ngày:
    4/12/16
    Bài viết:
    12
    Đã được cảm ơn:
    16
    Điểm thành tích:
    3
    Giới tính:
    Nam
    Tiền:
    12 CR
    cam on Bac HLieu .................................
     
  3. sanikov

    sanikov Member

    Tham gia ngày:
    2/9/10
    Bài viết:
    98
    Đã được cảm ơn:
    63
    Điểm thành tích:
    18
    Tiền:
    925 CR
    Cảm ơn bác
     
    #3 +1 CR
  4. hodactan

    hodactan New Member

    Tham gia ngày:
    21/10/10
    Bài viết:
    25
    Đã được cảm ơn:
    22
    Điểm thành tích:
    3
    Tiền:
    248 CR
    khong thay link dau het
     
  5. HLIEU

    HLIEU Well-Known Member

    Tham gia ngày:
    12/2/09
    Bài viết:
    323
    Đã được cảm ơn:
    14,337
    Điểm thành tích:
    113
    Giới tính:
    Nam
    Nghề nghiệp:
    Bác sị Y Khoa chuyên Nội khoa
    Nơi ở:
    Việt Nam
    Tiền:
    1,737 CR
    Đã nhắc lại một lần mà bạn không đẻ ý Phải cám ơn tác giả ở góc phải cuối bài. Phải ấn tiếp F5 mới hiện ra lin tải về gồm có ban 1080p và 720p ơ phần download Fshare.
    HLIEU
     
    Chỉnh sửa cuối: 6/12/17
    #5 +1 CR
  6. lenhhoxung

    lenhhoxung Active Member

    Tham gia ngày:
    8/1/09
    Bài viết:
    553
    Đã được cảm ơn:
    150
    Điểm thành tích:
    43
    Tiền:
    2,078 CR
    Lâu lắm mới bác xuất hiện lại.
    Thanks bác.
     
  7. hodactan

    hodactan New Member

    Tham gia ngày:
    21/10/10
    Bài viết:
    25
    Đã được cảm ơn:
    22
    Điểm thành tích:
    3
    Tiền:
    248 CR
    Cam on Bac
     
  8. lam1985

    lam1985 Member

    Tham gia ngày:
    4/6/16
    Bài viết:
    41
    Đã được cảm ơn:
    19
    Điểm thành tích:
    8
    Tiền:
    53 CR
    Cảm ơn Bác . Toàn những film bất hủ không . Cảm ơn Bác đã chia sẽ.
     
    #8 +1 CR
    phammanhhung65 cảm ơn bài này.
  9. idragon76

    idragon76 Active Member

    Tham gia ngày:
    5/6/14
    Bài viết:
    114
    Đã được cảm ơn:
    42
    Điểm thành tích:
    28
    Tiền:
    866 CR
    phim này coi tới nữa cuốn âm thanh nhảy tùm lum, âm thanh không đi đôi với cái miệng, sub thì chạy trước một hồi tới âm thanh sau đó mới hình ảnh
     
    phammanhhung65 cảm ơn bài này.
  10. DrHoang45

    DrHoang45 Moderator

    Tham gia ngày:
    18/12/15
    Bài viết:
    84
    Đã được cảm ơn:
    290
    Điểm thành tích:
    53
    Giới tính:
    Nam
    Nghề nghiệp:
    Bác sĩ Y KHoa 1972
    Nơi ở:
    VietNam
    Tiền:
    292 CR
    Sorry, post nhầm nick
    DrHoạng45
     
    Chỉnh sửa cuối: 9/12/17
    nguoique and phammanhhung65 like this.
  11. HLIEU

    HLIEU Well-Known Member

    Tham gia ngày:
    12/2/09
    Bài viết:
    323
    Đã được cảm ơn:
    14,337
    Điểm thành tích:
    113
    Giới tính:
    Nam
    Nghề nghiệp:
    Bác sị Y Khoa chuyên Nội khoa
    Nơi ở:
    Việt Nam
    Tiền:
    1,737 CR
    Cháu không để ý thông báo của bác là phim HLIEUxuất hiện vào ngày 1 và 15 hàng tháng , có gì là lâu mà cháu nói vậy. Tìm phim hay, làm sub Việt free không hề đơn giản, đã, mất bao nhiều thời gian vậy có người góp ý không đúng phải kiểm tra lại , HLIEU hết muốn làm luôn..
    Cám ơn bạn đã góp y. Nhưng khi tôi tải về cả 2 bản 720- và 1080p kiểm tra lại mất bao thì giờ đều không có lệch thời gian quá đáng như bạn nói.. Không hiểu là bạn tải có hư không, nếu vậy saio không có ai góp ý ngoài bạn, Bạn chê phim của tôi làm ra, xin đừng tải về xem nữa nhé..Thanks so much.
    Trược khi post tôi phải kểm tra chính tả, thời gian từng dòng, phải xem đi lại ít ra 4 lần. Không tin ư bạn thử làm 1 phim tàu đi xem nào post cho anh em đi chỉ 1 phim đi rồi mới biết công lao người làm ra là thế nào.
    Xem phim Tàu với sub Viêt bạn đòi hòi khởp 100o/o với miệng sao được vì nói tiếng Hoa, mà xem sub Việt giúp cho bạn hiểu chứ nói tiếng hoa hoàn toàn khác tiếng việt khi nói. kia mà.
    Không có chuyện nhảy tùm lum như bạn nói đâu.
    HLIEU
     
    #11 +1 CR
  12. sonphamhp91

    sonphamhp91 New Member

    Tham gia ngày:
    30/9/15
    Bài viết:
    29
    Đã được cảm ơn:
    24
    Điểm thành tích:
    3
    Tiền:
    359 CR
    con cảm ơn bác, lâu rồi mới vào diễn đàn, bác vẫn miệt mài post phim cho mn xem, con chúc bác nhiều sức khỏe :D:D:D
     
    phammanhhung65 cảm ơn bài này.
  13. idragon76

    idragon76 Active Member

    Tham gia ngày:
    5/6/14
    Bài viết:
    114
    Đã được cảm ơn:
    42
    Điểm thành tích:
    28
    Tiền:
    866 CR
    hey old man không phải là chê mà là nói cho biết, ông nóng tánh quá vậy, phim ông rip không phải chỉ mình ông làm được thôi, tui củng làm được nhé chỉ tại internet bên tui khi upload quá chậm cho nên không có upload như mọi người khác, từng tưởng chỉ mình ông biết làm nhé
     
  14. tilldoomsday

    tilldoomsday Well-Known Member

    Tham gia ngày:
    2/12/09
    Bài viết:
    1,189
    Đã được cảm ơn:
    290
    Điểm thành tích:
    83
    Nơi ở:
    Tim em người trọ là tôi.
    Tiền:
    1,980 CR
    Cám ơn bác nhiều, làm cháu nhớ lại ngày xưa cả xóm bu lại 1 nhà mở đầu băng phim kiếm hiệp Hồng Kong coi tới nửa đêm :D.
     
    phammanhhung65 cảm ơn bài này.
  15. phuocdoi100

    phuocdoi100 Well-Known Member

    Tham gia ngày:
    23/7/09
    Bài viết:
    1,531
    Đã được cảm ơn:
    753
    Điểm thành tích:
    113
    Giới tính:
    Nam
    Tiền:
    1,364 CR
    Một bộ phim kiếm hiệp kinh điển quá hay làm nhớ lại thời thuê băng video và đầu máy. Cám ơn bác HLieu nhiều lắm lắm!!!
     
    phammanhhung65 cảm ơn bài này.
  16. phammanhhung65

    phammanhhung65 Well-Known Member

    Tham gia ngày:
    1/9/14
    Bài viết:
    23
    Đã được cảm ơn:
    342
    Điểm thành tích:
    48
    Tiền:
    732 CR
    cám ơn bạn nhiều,thân chào.
    The human lantern.1982.1080p.x264.NPW


    ( Trần quang Thái, Lưu Vĩnh, La Liệt)= 9.92GB-5.35GB

    [​IMG]

    [​IMG]

    Đây là một phim thuộc loại hành động,tình cảmh hấp dẫn kinh sợ từ đầu đến cuối qua tài diễn

    xuất của 3 tài tử lừng danh của màn ảnh HK là Trần Quang Thái, Lưu Vĩnh, La liệt

    Đàm tam gia và Long công tử là 2 người giàu có nhất vùng, luôn ghen tị, đánh nahu vì danh lợi. Long công tử năm nay muốn làm 1 lồng đèn đắt giá qua mặt Đàm tam gia, mới nhờ Thôi lão đầu. nhưng lão này nát rượi nhờ người bí mật là Triêu xuân Phong, một bạn cũù của Long công tử..Hắn chỉ nói khi nào xong mới báo chứ không được xem trước..
    Không ngờ tênn Triệu này hận thù xưa ấm mưu phục hận Long công tử, hắn ấm thần bắt cóc 3 cô nàng Diễm Châu , em của Đàm tam gia, và vợ của Long công tử, Hắn dùng da 3 cô nàng làm lồng đèn cho Long công tủ, Sự mất tíchn lượt3 người khiến 2 đại gia nghi kỵ lẫn nhau Phan bộ đầu cũng không tim ra anh mối.
    Cuối cùng,Long công tử mới biết Đàm tam gia thuê sát thủ giết mình nhưng thất bại và sát thủ này bị bêu đầu.tại chợ.Lúc ấy,Long công tử,Phan bộ đàu mới nghi đến Tiệu xuân Phong..
    Trận chiến sau cùng giữ 3 người với tên làm lồng đen da người diễn nhua ác liệt Đàm tam gia và tên ác ông Phong chết. Long công tử bị cháy suýt chết hiến toàn bộ tài sản cho người nghèo và bỏ ra đi.

    Nngoài hình ảnh đẹp, rõ ,cốt truyện thật gây cấn, rất xứng đáng lưu mãi trong số các phim kinh điển hay nhất mọi ời đại; chắc rồi đây bạn sẽ còn muốn xem xem lại nhiều lần nữa.

    Sub Việtệtđược chỉnh lại tona bộ bởi HLIEUng được tích hợp luôn vào phim không để riêng. Dù sao, file srt này không phải hard code nên bạn có thể tách dễ dàng bằng cách dùng MkvextractGUI.exe trong MKV toolnix.
    Hy vọng được các bạn mê say bộ phim hấp dẫn này sẽ cho nhiều comment(mỗi ngày /chỉ cần 1 người) và bài khỏi bị trôi đi đâu mất tiêu, giúp các bạn nào biết trể còn tìm ra được phim này. Nhớ là bạn a like chỉ tải phim chưa đủ đâu, mà xin nhớ please comment giùm tác giả khi thấy phim nào quá hay để còn giúp bạn bè khác nữa có cơ hội xem được phim hay như mình



    [​IMG]

    6.5/10

    Trên 637 người xem​


    [​IMG]



    Thể loại: Hành động, Tội phạm

    Hãng phim Shaw Brothers

    Sản xuất năm 1982

    Đạo diễn Tôn Trọng

    Vai chính:

    Trần Quang Thái vai Đàm tam gia

    La liệt vai Triệu Xuân Phong

    Lưu Vĩnh Vai Long công tử

    Tôn Kiến vai Phan bộ đầu


    [​IMG]


    a)General Video 1080p

    File size : 9.98 GiB

    Duration : 1 h 34 min

    Overall bit rate : 15.1 Mb/s

    Format : AVC

    Format/Info : Advanced Video Codec

    Bit rate : 15.0 Mb/s

    Width : 1 920 pixels

    Height : 1 080 pixels

    Display aspect ratio : 16:9

    Frame rate mode : Constant

    Frame rate : 23.976 (24000/1001) FPS

    Stream size : 9.92 GiB (99%)

    b) general Vdeo 720p:

    File size : 5.35 GiB

    Duration : 1 h 34 min

    Overall bit rate mode : Variable

    Overall bit rate : 8 108 kb/s

    Format/Info : Advanced Video Codec

    Bit rate : 8 000 kb/s

    Width : 1 280 pixels

    Height : 720 pixels

    Display aspect ratio : 16:9

    Frame rate mode : Constant

    Frame rate : 23.976 (24000/1001) FPS

    Stream size : 5.29 GiB (99%)

    c)Audio
    Format : AC3

    Bit rate : 89.2 kb/s

    Maximum bit rate : 320 kb/s

    Channel(s) : 62 channels

    Channel(s)_Original : 6 channels

    Channel positions : Front: L C R, Side: L R, LFE

    Sampling rate : 48.0 kHz

    Stream size : 60.3 MiB (1%)

    d)-Subtitles: Vietnamese non hard code, [/QUOTE]



    [​IMG]
    View attachment 276391
    View attachment 276392
    View attachment 276393
    View attachment 276394
    View attachment 276395
    View attachment 276396
    View attachment 276397
    View attachment 276398

    [​IMG]

    Human lantern 1080p

    Nhấn nút Cảm ơn (dưới chân bài) để thấy link!


    English sub

    https://www.fshare.vn/file/7CTXU8BMVAIF

    bản 720p

    Nhấn nút Cảm ơn (dưới chân bài) để thấy link!


    Đã có bản 720p phim này ở mục download fshare, bạn nào thích bản 720p cứ chọn tải link Fshare

    Danh sách các phim 1080p mà HLIEU đã post

    HLIEU

    [/QUOTE]
     
    fsvnhd, thang211192, nguoique and 5 others like this.
  17. HLIEU

    HLIEU Well-Known Member

    Tham gia ngày:
    12/2/09
    Bài viết:
    323
    Đã được cảm ơn:
    14,337
    Điểm thành tích:
    113
    Giới tính:
    Nam
    Nghề nghiệp:
    Bác sị Y Khoa chuyên Nội khoa
    Nơi ở:
    Việt Nam
    Tiền:
    1,737 CR
    Ngày 15/12/2017 sẽ ra mắt môt phim | Hành động| Tội phạmt| Đánh cướp gian khoan biển bắc: North sea Hijack.jack.1980.1080p.720p.x264.HDC. do 3 tài tử lừng danh của mỹ là Roger Moore, James Mason, Anthony Perkins,)= 10.3-4.92GB

    [​IMG]
    Đây là một phim thuộc loại hành động,tội phạm, hấp dẫn kinh sợ từ đầu đến cuối qua tài diễn xuất của 3 tài tử lừng danh của màn ảnh Mỹ là roger Moore, James Mason và Anthonuy POerkins.t

    Esther, một tàu biển cung cấp cho Bắc Hải, đưa lên một nhóm người giả làm phóng viên đang truy cập vào gian khoan sản xuất dầu Jennifer.

    Lãnh đạo của nhóm này, Lou Kramer chiếm quyền kiểm soát tàu, và hai tay sai lặn nhảy dù gắn các quả mìn vào chân Jennifer gian khoa và khoan dầu chính của anó Ruth. Từ Êsther, Kramer ra một yêu cầu đòi tiền chuộc trị giá 25 triệu bảng Anh hoặc ông ta sẽ cho nổy Ruth; sau đó, nếu tiền chuộc vẫn không được trả, anh ta sẽ tiêu diệt Jennifer.. Chính phủ Anh chống lại việc trả tiền cho khủng bố, nhưng Tipping cho rằng, như một thỏa hiệp, Lloyd có thể trả tiền chuộc. Sau khi Lloyd's được hỏi ý kiến, Thủ tướng Chính phủ đã thấy một video của ffolkes thực hiện một nhiệm vụ cứu hộ trên tàu mô phỏng.Bay ra với Jennifer, ffolkes đề xuất kéo dài thời gian, tạo một vụ nổ lớn nên thắp sáng bầu trời đêm, đánh lừa Kramer nghĩ Ruth đã bị nổ tung do tai nạn để anh ta sẽ không đẩy nút vào thời hạn.

    Thủy thủ bị bắt tính nhờ s Sanna lấy thuốc độc Colchicine pha vào thức uống. Thật không may, Kramer đã theo dõi họ, sau đó ông buộc một trong những "kẻ gây rối" uống cà phê bị nhiễm độc; Sanna,chạy trốn và dường như rơi xuống biển.

    Sau đó, Kramer yêu cầu Brinston và King và ffolkes vai phụ tá đến gặp hắn, Kramer không tin ffolkes khi gặpvà ra lệnh anh ta rời tàu.

    Với thời gian cạn kiệt, Thủ tướng xem việc trả tiền chuộc, nhưng ffolkes trả lời không đồngý vì anh vẫn nghĩ mình có thể giải cứu con tin. Tuy nhiên, để cứu sống 697 người đàn ông và phụ nữ trên tàu Jennifer, các chuyên gia, 6ng đề nghị Esther bị xóa sổ bằng bom nếu đội của ông không thể giải cứu con tin kịp thời.

    Những người của Ffolkes đã đánh bại Êsther, đưa lính canh xuống. các ffolkes cùng họ. Vào thời gian được chỉ định, Brindsen mờia một điếu thuốc cho Kramer, thả chúng xuống sàn và cúi xuống để nhặt chúng lên. ffolkes xuất hiện ở cửa sổ và bắn Kramer bị phân tâm bằng một cây giáo, gắni anh ta vào ghế của mình. Tuy nhiên, Kramer chưa chết hắn và ông từ từđưa ngón ta y đến nút m nổ. ffolkes đến kéo hắn rat.

    Một buổi lễ được tổ chức tại lâu đài của ffolkes để kỷ niệm ngày cuối cùng của vụ cướp.. ffolkes đã bày tỏ thái độ không nhận các huy chương, vì vậy Thủ tướng Chính phủ đã tặng cho ffolkes lập dị thích mèo với 3 con mèo mớit hay cho , Esther, Ruth và Jennifer

    HLIEU
     
    Chỉnh sửa cuối: 12/12/17
    #17 +1 CR
  18. thang211192

    thang211192 New Member

    Tham gia ngày:
    19/3/18
    Bài viết:
    3
    Đã được cảm ơn:
    0
    Điểm thành tích:
    1
    Giới tính:
    Nam
    Tiền:
    3 CR
    cám ơn bác. nhiều phim hay quá
     
  19. thang211192

    thang211192 New Member

    Tham gia ngày:
    19/3/18
    Bài viết:
    3
    Đã được cảm ơn:
    0
    Điểm thành tích:
    1
    Giới tính:
    Nam
    Tiền:
    3 CR
    không có sub việt à bác
     
  20. songle

    songle Member

    Tham gia ngày:
    30/9/09
    Bài viết:
    46
    Đã được cảm ơn:
    8
    Điểm thành tích:
    8
    Giới tính:
    Nam
    Tiền:
    637 CR
    Cám ơn bác
     
    #20 +1 CR

Chia sẻ trang này