[Fshare] Top 10 The Art Of Architecture Season 01 [2017] 1080i HDTV x264 AC3 Engsub

Thảo luận trong 'Phim tài liệu - Documentaries' bắt đầu bởi iscol, 14/4/17.

  1. iscol

    iscol Moderator

    Tham gia ngày:
    1/9/09
    Bài viết:
    4,504
    Đã được cảm ơn:
    6,529
    Điểm thành tích:
    113
    Giới tính:
    Nam
    Nghề nghiệp:
    Computer
    Nơi ở:
    Việt Nam
    Tiền:
    1,858 CR
    [​IMG]
    Top 10 The Art Of Architecture Season 01 [2017] 1080i HDTV x264 AC3 Engsub
    Duration: 10x52 min.
    Year of Production: 2015
    Language(s): English
    Available: delivery June 2016

    Resolution: HD

    File Info
    Mã:
    Format                      : Matroska
    
    
    Format version              : Version 4 / Version 2
    
    
    File size                   : 1.83 GiB
    Duration                    : 47 min 37 s
    Overall bit rate            : 5 490 kb/s
    Encoded date                : UTC 2017-04-14 08:39:36
    Writing application         : mkvmerge v10.0.0 ('To Drown In You') 32bit
    Writing library             : libebml v1.3.4 + libmatroska v1.4.5
    Video
    ID                          : 1
    Format                      : AVC
    Format/Info                 : Advanced Video Codec
    Format profile              : High@L4
    Format settings, CABAC      : Yes
    Format settings, ReFrames   : 4 frames
    Codec ID                    : V_MPEG4/ISO/AVC
    Duration                    : 47 min 37 s
    Bit rate                    : 4 903 kb/s
    Width                       : 1 920 pixels
    Height                      : 1 080 pixels
    Display aspect ratio        : 16:9
    Frame rate mode             : Constant
    Frame rate                  : 25.000 FPS
    Color space                 : YUV
    Chroma subsampling          : 4:2:0
    Bit depth                   : 8 bits
    Scan type                   : Interlaced
    Scan type, store method     : Separated fields
    Scan order                  : Top Field First
    Bits/(Pixel*Frame)          : 0.095
    Stream size                 : 1.63 GiB (89%)
    Default                     : Yes
    Forced                      : No
    Color range                 : Limited
    Color primaries             : BT.709
    Transfer characteristics    : BT.709
    Matrix coefficients         : BT.709
    Audio #1
    ID                          : 2
    Format                      : AC-3
    Format/Info                 : Audio Coding 3
    Format settings, Endianness : Big
    Codec ID                    : A_AC3
    Duration                    : 47 min 36 s
    Bit rate mode               : Constant
    Bit rate                    : 384 kb/s
    Channel(s)                  : 6 channels
    Channel positions           : Front: L C R, Side: L R, LFE
    Sampling rate               : 48.0 kHz
    Frame rate                  : 31.250 FPS (1536 spf)
    Bit depth                   : 16 bits
    Compression mode            : Lossy
    Stream size                 : 131 MiB (7%)
    Language                    : English
    Service kind                : Complete Main
    Default                     : Yes
    Forced                      : No
    Audio #2
    ID                          : 3
    Format                      : AC-3
    Format/Info                 : Audio Coding 3
    Format settings, Endianness : Big
    Codec ID                    : A_AC3
    Duration                    : 47 min 37 s
    Bit rate mode               : Constant
    Bit rate                    : 192 kb/s
    Channel(s)                  : 2 channels
    Channel positions           : Front: L R
    Sampling rate               : 48.0 kHz
    Frame rate                  : 31.250 FPS (1536 spf)
    Bit depth                   : 16 bits
    Compression mode            : Lossy
    Delay relative to video     : 16 ms
    Stream size                 : 65.4 MiB (3%)
    Language                    : Spanish
    Service kind                : Complete Main
    Default                     : No
    Forced                      : No
    Text #1
    ID                          : 4
    Format                      : UTF-8
    Codec ID                    : S_TEXT/UTF8
    Codec ID/Info               : UTF-8 Plain Text
    Duration                    : 46 min 58 s
    Bit rate                    : 78 b/s
    Count of elements           : 552
    Stream size                 : 27.1 KiB (0%)
    Language                    : English
    Default                     : Yes
    Forced                      : No
    Text #2
    ID                          : 5
    Format                      : VobSub
    Muxing mode                 : zlib
    Codec ID                    : S_VOBSUB
    Codec ID/Info               : Picture based subtitle format used on DVDs
    Duration                    : 46 min 58 s
    Bit rate                    : 6 376 b/s
    Count of elements           : 552
    Stream size                 : 2.14 MiB (0%)
    Language                    : English
    Default                     : No
    Forced                      : No
    Text #3
    ID                          : 6
    Format                      : VobSub
    Muxing mode                 : zlib
    Codec ID                    : S_VOBSUB
    Codec ID/Info               : Picture based subtitle format used on DVDs
    Duration                    : 46 min 58 s
    Bit rate                    : 2 127 b/s
    Count of elements           : 552
    Stream size                 : 732 KiB (0%)
    Language                    : English
    Default                     : No
    Forced                      : No

    Everyone loves a Top Ten, whether it’s your favourite TV show, your favourite film, a book, a restaurant. In this series we take a fresh look at the most amazing buildings, structures, and bridges from around the world. Name your number ones.

    ART OF ENGINEERING
    01. Bridges
    02. Museums
    03. TV Towers
    04. Top 10 The Art Of Architecture The Most Amazing Stadiums
    05. Transport Megastructures

    ART OF ARCHITECTURE
    06. Memorials and Monuments
    07. Theatres & Opera Houses
    08. City Squares
    09. Parks and Gardens
    10. Playful Designs


    [​IMG]

    [​IMG]
    Screenshot

    [​IMG]

    Download

    Fshare.vn

    Folder Link


    https://www.fshare.vn/folder/LRP2SK5S9N7S
     
    #1 +2 CR
  2. iscol

    iscol Moderator

    Tham gia ngày:
    1/9/09
    Bài viết:
    4,504
    Đã được cảm ơn:
    6,529
    Điểm thành tích:
    113
    Giới tính:
    Nam
    Nghề nghiệp:
    Computer
    Nơi ở:
    Việt Nam
    Tiền:
    1,858 CR
    Mới làm audio english tập 6 nên up lên luôn cho các bác xem tạm trước các tập còn lại sẽ post sau
     
    #2 +1 CR
    Derima, nhanvoanh, anhtien_hd and 3 others like this.
  3. iscol

    iscol Moderator

    Tham gia ngày:
    1/9/09
    Bài viết:
    4,504
    Đã được cảm ơn:
    6,529
    Điểm thành tích:
    113
    Giới tính:
    Nam
    Nghề nghiệp:
    Computer
    Nơi ở:
    Việt Nam
    Tiền:
    1,858 CR
    Cập nhật tập 01, 08, 09
     
    #3 +1 CR
  4. iscol

    iscol Moderator

    Tham gia ngày:
    1/9/09
    Bài viết:
    4,504
    Đã được cảm ơn:
    6,529
    Điểm thành tích:
    113
    Giới tính:
    Nam
    Nghề nghiệp:
    Computer
    Nơi ở:
    Việt Nam
    Tiền:
    1,858 CR
    Cập nhật tập 10
     
    #4 +1 CR
    Derima, anhtien_hd and hoatieu2 like this.
  5. phan phong tan

    phan phong tan Well-Known Member

    Tham gia ngày:
    20/5/11
    Bài viết:
    597
    Đã được cảm ơn:
    299
    Điểm thành tích:
    63
    Giới tính:
    Nam
    Nghề nghiệp:
    Chuyên viên kinh tế
    Nơi ở:
    Việt Nam
    Tiền:
    1,271 CR
    Lại được xem một bộ mới, cám ơn iscol nhiều nhé. Chờ đầy đủ sẽ tải trong vòng 3 nốt nhạc...:D:D:D. Chúc nhiều sức khoẻ.
     
  6. duytran54

    duytran54 Well-Known Member

    Tham gia ngày:
    10/8/10
    Bài viết:
    1,928
    Đã được cảm ơn:
    446
    Điểm thành tích:
    83
    Nghề nghiệp:
    Tự do
    Nơi ở:
    Việt Nam
    Tiền:
    1,741 CR
    Bộ này mà có sub việt thì ngon
     
  7. iscol

    iscol Moderator

    Tham gia ngày:
    1/9/09
    Bài viết:
    4,504
    Đã được cảm ơn:
    6,529
    Điểm thành tích:
    113
    Giới tính:
    Nam
    Nghề nghiệp:
    Computer
    Nơi ở:
    Việt Nam
    Tiền:
    1,858 CR
    Cập nhật

    Top 10 The Art of Architecture S01E02 The Most Famous Museums and Galleries
     
    #7 +1 CR
    Derima, anhtien_hd and hoatieu2 like this.
  8. hackerry

    hackerry Active Member

    Tham gia ngày:
    1/2/11
    Bài viết:
    479
    Đã được cảm ơn:
    65
    Điểm thành tích:
    28
    Nơi ở:
    ở Nơi ở
    Tiền:
    904 CR
    tập 3 chắc chưa up nhỉ :D
     
  9. iscol

    iscol Moderator

    Tham gia ngày:
    1/9/09
    Bài viết:
    4,504
    Đã được cảm ơn:
    6,529
    Điểm thành tích:
    113
    Giới tính:
    Nam
    Nghề nghiệp:
    Computer
    Nơi ở:
    Việt Nam
    Tiền:
    1,858 CR
    Tập 3 và 5 chưa thấy họ up, tập 4 và 7 thì có rồi nhưng lại chưa có audio english nên chưa up lên. Các bác tranh thủ down những tập đã có về xem trước các tập còn lại khi nào có em sẽ cập nhật ngay.
     
    #9 +1 CR
    Derima, malgreli, hoang_kid and 2 others like this.
  10. anhtien_hd

    anhtien_hd Member

    Tham gia ngày:
    19/9/09
    Bài viết:
    60
    Đã được cảm ơn:
    18
    Điểm thành tích:
    8
    Tiền:
    378 CR
    Cảm ơn bác nhiều ạ !
     
  11. Jellkeen

    Jellkeen Well-Known Member

    Tham gia ngày:
    24/2/13
    Bài viết:
    2,641
    Đã được cảm ơn:
    3,418
    Điểm thành tích:
    113
    Giới tính:
    Nam
    Nghề nghiệp:
    Vô Định
    Nơi ở:
    Vô Gia Cư
    Tiền:
    3,701 CR
    Đủ bộ chưa bác, cái này mấy tay kiến trúc khoái lắm.
     
  12. quangtuan1427

    quangtuan1427 Member

    Tham gia ngày:
    3/2/10
    Bài viết:
    284
    Đã được cảm ơn:
    2
    Điểm thành tích:
    18
    Tiền:
    666 CR
    Oah! Bộ này nghe có vẻ hấp dẫn à nha :3
     
  13. iscol

    iscol Moderator

    Tham gia ngày:
    1/9/09
    Bài viết:
    4,504
    Đã được cảm ơn:
    6,529
    Điểm thành tích:
    113
    Giới tính:
    Nam
    Nghề nghiệp:
    Computer
    Nơi ở:
    Việt Nam
    Tiền:
    1,858 CR
  14. dangthanhthe

    dangthanhthe Well-Known Member

    Tham gia ngày:
    17/12/14
    Bài viết:
    400
    Đã được cảm ơn:
    404
    Điểm thành tích:
    63
    Giới tính:
    Nam
    Tiền:
    845 CR
    Quá tuyệt. Em mê món này chỉ sau âm nhạc :)
     
  15. iscol

    iscol Moderator

    Tham gia ngày:
    1/9/09
    Bài viết:
    4,504
    Đã được cảm ơn:
    6,529
    Điểm thành tích:
    113
    Giới tính:
    Nam
    Nghề nghiệp:
    Computer
    Nơi ở:
    Việt Nam
    Tiền:
    1,858 CR
    #15 +1 CR
    Hòa Thượng, hoatieu2 and kimtv like this.
  16. iscol

    iscol Moderator

    Tham gia ngày:
    1/9/09
    Bài viết:
    4,504
    Đã được cảm ơn:
    6,529
    Điểm thành tích:
    113
    Giới tính:
    Nam
    Nghề nghiệp:
    Computer
    Nơi ở:
    Việt Nam
    Tiền:
    1,858 CR
    Cập nhật Top 10 The Art Of Architecture S01E07 Theatres Opera Houses.
     
    #16 +1 CR
    kimtv, hoatieu2 and Hòa Thượng like this.
  17. Derima

    Derima New Member

    Tham gia ngày:
    21/6/18
    Bài viết:
    1
    Đã được cảm ơn:
    0
    Điểm thành tích:
    1
    Tiền:
    1 CR
    Cảm ơn bác rất nhiều. Món kiến trúc này là sở thích của e :D
     
    #17 +1 CR
  18. lumionken

    lumionken New Member

    Tham gia ngày:
    25/7/13
    Bài viết:
    23
    Đã được cảm ơn:
    5
    Điểm thành tích:
    3
    Tiền:
    506 CR
    Thank you
     

Chia sẻ trang này