[Torrent] Tân Thần Điêu Đại Hiệp (2014) HDTV 50 Eps - Tân Thần Điêu Đại Hiệp (2014) - 50 Tập - Thuyế

Thảo luận trong 'Torrent Download' bắt đầu bởi lhx, 14/3/15.

  1. lhx

    lhx Well-Known Member

    Tham gia ngày:
    25/4/10
    Bài viết:
    1,489
    Đã được cảm ơn:
    4,115
    [​IMG]

    Mã:
    General
    Complete name                  : F:\PHIM BO\Tân Thần Điêu Đại Hiệp (2014) thuyet minh\[ThuyetMinh].Tan.Than.Dieu.Dai.Hiep.2014.Tap01.mp4
    Format                         : MPEG-4
    
    
    	

    Format profile : Base Media / Version 2

    Codec ID : mp42 File size : 1.10 GiB Duration : 1h 4mn Overall bit rate mode : Variable Overall bit rate : 2 428 Kbps Encoded date : UTC 2014-12-05 06:05:58 Tagged date : UTC 2014-12-05 06:05:58 gsst : 0 gstd : 3881911 gssd : B4A7DD706HH1417761419462806 gshh : r6---sn-a5m7zu7e.googlevideo.com Video ID : 1 Format : AVC Format/Info : Advanced Video Codec Format profile : High@L3.1 Format settings, CABAC : Yes Format settings, ReFrames : 1 frame Codec ID : avc1 Codec ID/Info : Advanced Video Coding Duration : 1h 4mn Bit rate : 2 233 Kbps Maximum bit rate : 8 036 Kbps Width : 1 280 pixels Height : 720 pixels Display aspect ratio : 16:9 Frame rate mode : Constant Frame rate : 25.000 fps Color space : YUV Chroma subsampling : 4:2:0 Bit depth : 8 bits Scan type : Progressive Bits/(Pixel*Frame) : 0.097 Stream size : 1.01 GiB (92%) Tagged date : UTC 2014-12-05 06:07:35 Audio ID : 2 Format : AAC Format/Info : Advanced Audio Codec Format profile : LC Codec ID : 40 Duration : 1h 4mn Bit rate mode : Variable Bit rate : 192 Kbps Maximum bit rate : 202 Kbps Channel(s) : 2 channels Channel positions : Front: L R Sampling rate : 44.1 KHz Compression mode : Lossy Stream size : 88.8 MiB (8%) Title : IsoMedia File Produced by Google, 5-11-2011 Encoded date : UTC 2014-12-05 06:07:00 Tagged date : UTC 2014-12-05 06:07:35
    Mã:
    Diễn viên - vai diễn:
    Trần Hiểu - Dương Quá
    Trần Nghiên Hy - Tiểu Long Nữ
    Triệu Lệ Dĩnh - Mục Niệm Từ
    Lý Thần - Dương Khang
    Hoắc Chính Ngạn vai Doãn Chí Bình
    Trần Tường là Lục Triển Nguyên
    Trương Hinh Dư - Lí Mạc Sầu
    Mao Hiểu Đồng - Quách Phù
    Trương Tuyết Nghênh - Quách Tương
    Triệu Hàn Anh Tử - Lục Trình Anh
    Tôn Diệu Kì - Lục Vô Song
    Lí Minh Thuận - Hoàng Dược Sư (Đông tà)
    Trịnh Quốc Lâm - Quách Tĩnh
    Dương Minh Na - Hoàng Dung
    Đặng Lập Dân - Kha Trấn Ác
    Tống Phong Nham - Âu Dương Phong
    Trương Triết Hạn - Gia Luật Tề
    Tào Hinh Nguyệt - Hồng Lăng Ba
    Vương Song - Hoàn Nhan Bình
    [​IMG]

    [​IMG]

    Link tải phim
    Nhấn nút Cảm ơn (dưới chân bài) để thấy link!
     
  2. toclala

    toclala New Member

    Tham gia ngày:
    23/7/12
    Bài viết:
    1
    Đã được cảm ơn:
    0
    còn ai không ạ. seed giúm mình với. mình cám ơn :(
     
  3. zenT

    zenT Active Member

    Tham gia ngày:
    1/4/15
    Bài viết:
    108
    Đã được cảm ơn:
    116
    cho xin lai link bạn ơi
     
  4. Đắc Trung

    Đắc Trung Well-Known Member

    Tham gia ngày:
    6/5/17
    Bài viết:
    354
    Đã được cảm ơn:
    458
    Nếu có thể bạn cho mình xin lại đường link ạ. Cám ơn.
     

Chia sẻ trang này