[Fshare] [Update New Episode 16/05/18] Phim Tài Liệu Thế Giới Động Vật Và Thiên Nhiên Hoang Dã Thuyết Minh

Thảo luận trong 'Phim tài liệu - Documentaries' bắt đầu bởi iscol, 17/1/15.

  1. iscol

    iscol Moderator

    Tham gia ngày:
    1/9/09
    Bài viết:
    4,432
    Đã được cảm ơn:
    5,462
    Điểm thành tích:
    113
    Giới tính:
    Nam
    Nghề nghiệp:
    Computer
    Nơi ở:
    Việt Nam
    Tiền:
    1,777 CR
    Nguồn Thuyết Minh Tiếng Việt được lấy từ các kênh truyền hình Việt Nam hoặc do các thành viên khác chia sẽ.
    Nên việc không đầy đủ tập ở một số bộ chương trình là không thể tránh khỏi. Mong các bác thông cảm!!!!


    Xin gởi lời cám ơn đến các thành viên đã giúp đỡ và đóng góp thuyết minh cho các phim tài liệu này.




    Link Download Tất Cả Phim Tài Liệu Thuyết Minh

    Phim mà em up đều ở trong những folder dưới đây


    Link Folder







    Cập Nhật Ngày 06/12/2015









    [​IMG]
    National Geographic Great Migrations E04 Feast Or Famine HD 720p x264 Thuyết Minh
    Source:
    Video: ngc.great.migrations.104.720p.br-ifh
    Audio TM: THVL

    "Move as millions. Survive as one." That's the catchphrase of this seven-part event for which a National Geographic team spent two-plus years recording across 20 countries and all seven continents. Narrated by Alec Baldwin, it tells the stories of many of the planet's species and the journeys they undertake to ensure their survival. The diverse range of animals shown -- many revealing behaviors never caught on film before -- include Botswana zebras, Mali elephants, flying foxes in Australia, Pacific white sharks, and the white-eared kob of the Sudan, thought to have been destroyed during decades of violence.

    File Info

    Format : Matroska
    Format version : Version 4 / Version 2
    File size : 1.87 GiB
    Duration : 39mn 7s
    Overall bit rate : 6 839 Kbps
    Encoded date : UTC 2015-01-15 18:24:33
    Writing application : mkvmerge v7.5.0 ('Glass Culture') 32bit built on Jan 4 2015 16:37:25
    Writing library : libebml v1.3.1 + libmatroska v1.4.2
    DURATION : 00:39:03.562000000
    NUMBER_OF_FRAMES : 218441
    NUMBER_OF_BYTES : 439503292
    _STATISTICS_WRITING_APP : mkvmerge v7.5.0 ('Glass Culture') 32bit built on Jan 4 2015 16:37:25
    _STATISTICS_WRITING_DATE_UTC : 2015-01-15 18:24:33
    _STATISTICS_TAGS : BPS DURATION NUMBER_OF_FRAMES NUMBER_OF_BYTES

    Video
    ID : 1
    Format : AVC
    Format/Info : Advanced Video Codec
    Format profile : High@L4.1
    Format settings, CABAC : Yes
    Format settings, ReFrames : 5 frames
    Codec ID : V_MPEG4/ISO/AVC
    Duration : 39mn 7s
    Bit rate : 4 810 Kbps
    Width : 1 280 pixels
    Height : 720 pixels
    Display aspect ratio : 16:9
    Frame rate mode : Constant
    Frame rate : 29.970 fps
    Color space : YUV
    Chroma subsampling : 4:2:0
    Bit depth : 8 bits
    Scan type : Progressive
    Bits/(Pixel*Frame) : 0.174
    Stream size : 1.31 GiB (70%)
    Language : English
    Default : Yes
    Forced : No

    Audio #1
    ID : 2
    Format : AC-3
    Format/Info : Audio Coding 3
    Mode extension : CM (complete main)
    Format settings, Endianness : Big
    Codec ID : A_AC3
    Duration : 39mn 7s
    Bit rate mode : Constant
    Bit rate : 384 Kbps
    Channel(s) : 6 channels
    Channel positions : Front: L C R, Side: L R, LFE
    Sampling rate : 48.0 KHz
    Bit depth : 16 bits
    Compression mode : Lossy
    Stream size : 107 MiB (6%)
    Language : Vietnamese
    Default : Yes
    Forced : No

    Audio #2
    ID : 3
    Format : DTS
    Format/Info : Digital Theater Systems
    Mode : 16
    Format settings, Endianness : Big
    Codec ID : A_DTS
    Duration : 39mn 7s
    Bit rate mode : Constant
    Bit rate : 1 509 Kbps
    Channel(s) : 6 channels
    Channel positions : Front: L C R, Side: L R, LFE
    Sampling rate : 48.0 KHz
    Bit depth : 24 bits
    Compression mode : Lossy
    Stream size : 422 MiB (22%)
    Default : No
    Forced : No

    Screenshot

    [​IMG]

    Download

    Fshare.vn






    [​IMG]
    Wild Asia E06 Monsoon India God of Life HD 720p x264 Thuyết Minh
    Source:
    Audio TM: VTC

    Monsoon India s god of life is a fascinating chronicle of how the wild animals of India cope with the hardship of summer and how the arrival of the monsoon transforms their lives and the land they live in. The monsoon is a great benefactor that replenishes water and rejuvenates the land. But sometimes it can also overwhelm with its abundance, unleashing floods that cause death and destruction. In India s far north east, the rare great Indian rhinoceros lives on a flood plain that swings between the extremes of too little water... and too much.

    File Info
    Format : Matroska
    Format version : Version 4 / Version 2
    File size : 3.37 GiB
    Duration : 50mn 41s
    Overall bit rate : 9 531 Kbps
    Encoded date : UTC 2015-01-15 19:51:52
    Writing application : mkvmerge v7.5.0 ('Glass Culture') 32bit built on Jan 4 2015 16:37:25
    Writing library : libebml v1.3.1 + libmatroska v1.4.2
    DURATION : 00:50:41.120000000
    NUMBER_OF_FRAMES : 95035
    NUMBER_OF_BYTES : 145973760
    _STATISTICS_WRITING_APP : mkvmerge v7.5.0 ('Glass Culture') 32bit built on Jan 4 2015 16:37:25
    _STATISTICS_WRITING_DATE_UTC : 2015-01-15 19:51:52
    _STATISTICS_TAGS : BPS DURATION NUMBER_OF_FRAMES NUMBER_OF_BYTES

    Video
    ID : 1
    Format : AVC
    Format/Info : Advanced Video Codec
    Format profile : High@L4.1
    Format settings, CABAC : Yes
    Format settings, ReFrames : 5 frames
    Codec ID : V_MPEG4/ISO/AVC
    Duration : 50mn 41s
    Bit rate : 7 449 Kbps
    Width : 1 280 pixels
    Height : 720 pixels
    Display aspect ratio : 16:9
    Frame rate mode : Constant
    Frame rate : 23.976 fps
    Color space : YUV
    Chroma subsampling : 4:2:0
    Bit depth : 8 bits
    Scan type : Progressive
    Bits/(Pixel*Frame) : 0.337
    Stream size : 2.64 GiB (78%)
    Writing library : x264 core 120 r2164 da19765
    Encoding settings : cabac=1 / ref=5 / deblock=1:-3:-3 / analyse=0x3:0x113 / me=umh / subme=8 / psy=1 / psy_rd=1.00:0.00 / mixed_ref=1 / me_range=24 / chroma_me=1 / trellis=2 / 8x8dct=1 / cqm=0 / deadzone=21,11 / fast_pskip=0 / chroma_qp_offset=-2 / threads=6 / sliced_threads=0 / nr=0 / decimate=0 / interlaced=0 / bluray_compat=0 / constrained_intra=0 / bframes=7 / b_pyramid=2 / b_adapt=2 / b_bias=0 / direct=3 / weightb=1 / open_gop=0 / weightp=2 / keyint=240 / keyint_min=23 / scenecut=40 / intra_refresh=0 / rc_lookahead=50 / rc=crf / mbtree=1 / crf=18.0 / qcomp=0.80 / qpmin=10 / qpmax=51 / qpstep=4 / vbv_maxrate=50000 / vbv_bufsize=62500 / crf_max=0.0 / nal_hrd=none / ip_ratio=1.40 / aq=1:0.80
    Language : English
    Default : Yes
    Forced : No

    Audio #1
    ID : 2
    Format : AC-3
    Format/Info : Audio Coding 3
    Mode extension : CM (complete main)
    Format settings, Endianness : Big
    Codec ID : A_AC3
    Duration : 50mn 41s
    Bit rate mode : Constant
    Bit rate : 384 Kbps
    Channel(s) : 6 channels
    Channel positions : Front: L C R, Side: L R, LFE
    Sampling rate : 48.0 KHz
    Bit depth : 16 bits
    Compression mode : Lossy
    Stream size : 139 MiB (4%)
    Language : Vietnamese
    Default : Yes
    Forced : No

    Audio #2
    ID : 3
    Format : DTS
    Format/Info : Digital Theater Systems
    Mode : 16
    Format settings, Endianness : Big
    Codec ID : A_DTS
    Duration : 50mn 41s
    Bit rate mode : Constant
    Bit rate : 1 509 Kbps
    Channel(s) : 6 channels
    Channel positions : Front: L C R, Side: L R, LFE
    Sampling rate : 48.0 KHz
    Bit depth : 16 bits
    Compression mode : Lossy
    Stream size : 547 MiB (16%)
    Default : No
    Forced : No

    Screenshot

    [​IMG]

    Download

    Fshare.vn




    Update (19/02/2015)
    Wild Asia E03 Island Magic TM

    Fshare.vn




















     
    Chỉnh sửa cuối: 27/6/16
  2. 0803

    0803 Member

    Tham gia ngày:
    22/11/14
    Bài viết:
    139
    Đã được cảm ơn:
    15
    Điểm thành tích:
    18
    Tiền:
    439 CR
    Ðề: Thế Giới Động Vật Và Thiên Nhiên Hoang Dã (Great Migrations & Wild Asia) HD 720p x264 Thuyết Minh

    Tuyệt vời, mọi lứa tuổi đã có thể theo dõi nhẹ nhàng đơn giản, ko cần đọc sub. Thanks bác!
     
  3. iscol

    iscol Moderator

    Tham gia ngày:
    1/9/09
    Bài viết:
    4,432
    Đã được cảm ơn:
    5,462
    Điểm thành tích:
    113
    Giới tính:
    Nam
    Nghề nghiệp:
    Computer
    Nơi ở:
    Việt Nam
    Tiền:
    1,777 CR
    Ðề: Thế Giới Động Vật Và Thiên Nhiên Hoang Dã (Great Migrations & Wild Asia) HD 720p x264 Thuyết Minh

    [​IMG]
    NG Wild World's Weirdest Freaks In The Ocean 720p HDTV x264 TMinh

    Freaks in the Ocean The habits of strange animals, including those with the ultimate survival skills and the most cunning camouflage

    Screenshot

    [​IMG]

    Download

    Fshare.vn



















     
    thaylan1956 and anhtien_hd like this.
  4. abels

    abels Active Member

    Tham gia ngày:
    6/8/09
    Bài viết:
    119
    Đã được cảm ơn:
    39
    Điểm thành tích:
    28
    Tiền:
    914 CR
    Ðề: Thế Giới Động Vật Và Thiên Nhiên Hoang Dã (Great Migrations & Wild Asia) HD 720p x264 Thuyết Minh

    Cám ơn Bác chủ, cái nào có thuyết minh tiếng Việt nhờ Bác ghi chú chứ tiếng anh tụi em mít quá
     
  5. sutu

    sutu Active Member

    Tham gia ngày:
    25/4/09
    Bài viết:
    483
    Đã được cảm ơn:
    48
    Điểm thành tích:
    28
    Tiền:
    3,359 CR
    Ðề: Thế Giới Động Vật Và Thiên Nhiên Hoang Dã (Great Migrations & Wild Asia) HD 720p x264 Thuyết Minh

    Thanks Iscol!
    Hình như mới chỉ có tập 4 và 6 nhỉ?
    Lót dép chờ hàng của bác Iscol tiếp.
     
  6. iscol

    iscol Moderator

    Tham gia ngày:
    1/9/09
    Bài viết:
    4,432
    Đã được cảm ơn:
    5,462
    Điểm thành tích:
    113
    Giới tính:
    Nam
    Nghề nghiệp:
    Computer
    Nơi ở:
    Việt Nam
    Tiền:
    1,777 CR
    Ðề: Thế Giới Động Vật Và Thiên Nhiên Hoang Dã (Great Migrations & Wild Asia) HD 720p x264 Thuyết Minh

    [​IMG]
    Discovery Channel Ultimate Journeys 720p HDTV x264 Thuyết Minh
    Khám Phá Những vùng Đất Kỳ Thú


    Ultimate Journeys
    The ultimate adventure guide, going off the beaten track and away from the tourist trail.
    First episode date: August 4, 2013
    Language: English
    Genre: Documentary film

    Ultimate Journeys Canada (Full)
    Ultimate Journeys Japan (Phần 1)


    File Info

    Format : Matroska
    Format version : Version 4 / Version 2
    File size : 1.21 GiB
    Duration : 44mn 2s
    Overall bit rate : 3 934 Kbps
    Encoded date : UTC 2015-01-23 04:12:17
    Writing application : mkvmerge v7.5.0 ('Glass Culture') 32bit built on Jan 4 2015 16:37:25
    Writing library : libebml v1.3.1 + libmatroska v1.4.2
    DURATION : 00:43:57.120000000
    NUMBER_OF_FRAMES : 82410
    NUMBER_OF_BYTES : 126581760
    _STATISTICS_WRITING_APP : mkvmerge v7.5.0 ('Glass Culture') 32bit built on Jan 4 2015 16:37:25
    _STATISTICS_WRITING_DATE_UTC : 2015-01-23 04:12:17
    _STATISTICS_TAGS : BPS DURATION NUMBER_OF_FRAMES NUMBER_OF_BYTES

    Video
    ID : 1
    Format : AVC
    Format/Info : Advanced Video Codec
    Format profile : High@L3.1
    Format settings, CABAC : Yes
    Format settings, ReFrames : 4 frames
    Codec ID : V_MPEG4/ISO/AVC
    Duration : 44mn 2s
    Bit rate : 3 164 Kbps
    Width : 1 280 pixels
    Height : 720 pixels
    Display aspect ratio : 16:9
    Frame rate mode : Constant
    Frame rate : 25.000 fps
    Color space : YUV
    Chroma subsampling : 4:2:0
    Bit depth : 8 bits
    Scan type : Progressive
    Bits/(Pixel*Frame) : 0.137
    Stream size : 973 MiB (78%)
    Writing library : x264 core 107 r1772 c9dad9e
    Encoding settings : cabac=1 / ref=3 / deblock=1:0:0 / analyse=0x3:0x133 / me=umh / subme=6 / psy=1 / psy_rd=1.00:0.00 / mixed_ref=1 / me_range=16 / chroma_me=1 / trellis=1 / 8x8dct=1 / cqm=0 / deadzone=21,11 / fast_pskip=0 / chroma_qp_offset=-2 / threads=6 / sliced_threads=0 / nr=0 / decimate=1 / interlaced=0 / constrained_intra=0 / bframes=3 / b_pyramid=2 / b_adapt=1 / b_bias=0 / direct=1 / weightb=1 / open_gop=0 / weightp=2 / keyint=250 / keyint_min=25 / scenecut=40 / intra_refresh=0 / rc_lookahead=40 / rc=2pass / mbtree=1 / bitrate=3164 / ratetol=1.0 / qcomp=0.60 / qpmin=10 / qpmax=51 / qpstep=4 / cplxblur=20.0 / qblur=0.5 / ip_ratio=1.40 / aq=1:1.00
    Language : English
    Default : Yes
    Forced : No
    DURATION : 00:44:02.840000000
    NUMBER_OF_FRAMES : 66071
    NUMBER_OF_BYTES : 1045405420
    _STATISTICS_WRITING_APP : mkvmerge v7.5.0 ('Glass Culture') 32bit built on Jan 4 2015 16:37:25
    _STATISTICS_WRITING_DATE_UTC : 2015-01-23 04:12:17
    _STATISTICS_TAGS : BPS DURATION NUMBER_OF_FRAMES NUMBER_OF_BYTES

    Audio #1
    ID : 2
    Format : AC-3
    Format/Info : Audio Coding 3
    Mode extension : CM (complete main)
    Format settings, Endianness : Big
    Codec ID : A_AC3
    Duration : 44mn 2s
    Bit rate mode : Constant
    Bit rate : 384 Kbps
    Channel(s) : 2 channels
    Channel positions : Front: L R
    Sampling rate : 48.0 KHz
    Bit depth : 16 bits
    Compression mode : Lossy
    Stream size : 121 MiB (10%)
    Language : Vietnamese
    Default : Yes
    Forced : No

    Audio #2
    ID : 3
    Format : AC-3
    Format/Info : Audio Coding 3
    Mode extension : CM (complete main)
    Format settings, Endianness : Big
    Codec ID : A_AC3
    Duration : 44mn 2s
    Bit rate mode : Constant
    Bit rate : 384 Kbps
    Channel(s) : 6 channels
    Channel positions : Front: L C R, Side: L R, LFE
    Sampling rate : 48.0 KHz
    Bit depth : 16 bits
    Compression mode : Lossy
    Stream size : 121 MiB (10%)
    Default : No
    Forced : No

    Screenshot

    Ultimate Journeys Canada (Full)

    [​IMG]

    Ultimate Journeys Japan (Phần 1)

    [​IMG]

    Download

    Fshare.vn




    Update Episode London



    Update Tập Na Uy


     
    Chỉnh sửa cuối: 30/7/15
    ILoveMusic cảm ơn bài này.
  7. iscol

    iscol Moderator

    Tham gia ngày:
    1/9/09
    Bài viết:
    4,432
    Đã được cảm ơn:
    5,462
    Điểm thành tích:
    113
    Giới tính:
    Nam
    Nghề nghiệp:
    Computer
    Nơi ở:
    Việt Nam
    Tiền:
    1,777 CR
    Ðề: Thế Giới Động Vật Và Thiên Nhiên Hoang Dã (Great Migrations & Wild Asia) HD 720p x264 Thuyết Minh

    [​IMG]
    PBS Nature What Plants Talk About (2013) 720p HDTV x264 Thuyết Minh
    Lời Thì Thầm Của Cỏ Cây TM-VTC


    When we think about plants, we don’t often associate a term like “behavior” with them, but experimental plant ecologist JC Cahill wants to change that. The University of Alberta professor maintains that plants do behave and lead anything but solitary and sedentary lives. What Plants Talk About teaches us all that plants are smarter and much more interactive than we thought!

    File Info

    Format : Matroska
    Format version : Version 4 / Version 2
    File size : 1.84 GiB
    Duration : 52mn 30s
    Overall bit rate : 5 009 Kbps
    Encoded date : UTC 2015-01-22 19:50:19
    Writing application : mkvmerge v7.5.0 ('Glass Culture') 32bit built on Jan 4 2015 16:37:25
    Writing library : libebml v1.3.1 + libmatroska v1.4.2
    DURATION : 00:52:30.376000000
    NUMBER_OF_FRAMES : 98448
    NUMBER_OF_BYTES : 75727872
    _STATISTICS_WRITING_APP : mkvmerge v7.5.0 ('Glass Culture') 32bit built on Jan 4 2015 16:37:25
    _STATISTICS_WRITING_DATE_UTC : 2015-01-22 19:50:19
    _STATISTICS_TAGS : BPS DURATION NUMBER_OF_FRAMES NUMBER_OF_BYTES

    Video
    ID : 1
    Format : AVC
    Format/Info : Advanced Video Codec
    Format profile : High@L4.1
    Format settings, CABAC : Yes
    Format settings, ReFrames : 8 frames
    Codec ID : V_MPEG4/ISO/AVC
    Duration : 52mn 30s
    Bit rate : 4 333 Kbps
    Width : 1 280 pixels
    Height : 720 pixels
    Display aspect ratio : 16:9
    Frame rate mode : Constant
    Frame rate : 25.000 fps
    Color space : YUV
    Chroma subsampling : 4:2:0
    Bit depth : 8 bits
    Scan type : Progressive
    Bits/(Pixel*Frame) : 0.188
    Stream size : 1.59 GiB (87%)
    Writing library : x264 core 130 r2273 b3065e6
    Encoding settings : cabac=1 / ref=8 / deblock=1:0:0 / analyse=0x3:0x113 / me=umh / subme=9 / psy=1 / psy_rd=1.00:0.00 / mixed_ref=1 / me_range=16 / chroma_me=1 / trellis=1 / 8x8dct=1 / cqm=0 / deadzone=21,11 / fast_pskip=1 / chroma_qp_offset=-2 / threads=18 / lookahead_threads=1 / sliced_threads=0 / nr=0 / decimate=1 / interlaced=0 / bluray_compat=0 / constrained_intra=0 / bframes=3 / b_pyramid=2 / b_adapt=2 / b_bias=0 / direct=3 / weightb=1 / open_gop=0 / weightp=2 / keyint=250 / keyint_min=25 / scenecut=40 / intra_refresh=0 / rc_lookahead=50 / rc=crf / mbtree=1 / crf=20.0 / qcomp=0.60 / qpmin=0 / qpmax=69 / qpstep=4 / ip_ratio=1.40 / aq=1:1.00
    Language : English
    Default : Yes
    Forced : No
    Color primaries : BT.709
    Transfer characteristics : BT.709
    Matrix coefficients : BT.709

    Audio #1
    ID : 2
    Format : AC-3
    Format/Info : Audio Coding 3
    Mode extension : CM (complete main)
    Format settings, Endianness : Big
    Codec ID : A_AC3
    Duration : 52mn 30s
    Bit rate mode : Constant
    Bit rate : 192 Kbps
    Channel(s) : 2 channels
    Channel positions : Front: L R
    Sampling rate : 48.0 KHz
    Bit depth : 16 bits
    Compression mode : Lossy
    Stream size : 72.1 MiB (4%)
    Language : Vietnamese
    Default : Yes
    Forced : No

    Audio #2
    ID : 3
    Format : AC-3
    Format/Info : Audio Coding 3
    Mode extension : CM (complete main)
    Format settings, Endianness : Big
    Codec ID : A_AC3
    Duration : 52mn 30s
    Bit rate mode : Constant
    Bit rate : 384 Kbps
    Channel(s) : 2 channels
    Channel positions : Front: L R
    Sampling rate : 48.0 KHz
    Bit depth : 16 bits
    Compression mode : Lossy
    Stream size : 144 MiB (8%)
    Default : No
    Forced : No


    Screenshot

    [​IMG]


    Download

    Fshare.vn





     
    Chỉnh sửa cuối: 26/1/15
    thaylan1956 and ILoveMusic like this.
  8. iscol

    iscol Moderator

    Tham gia ngày:
    1/9/09
    Bài viết:
    4,432
    Đã được cảm ơn:
    5,462
    Điểm thành tích:
    113
    Giới tính:
    Nam
    Nghề nghiệp:
    Computer
    Nơi ở:
    Việt Nam
    Tiền:
    1,777 CR
    Ðề: Phim Tài Liệu Thế Giới Động Vật Và Thiên Nhiên Hoang Dã Thuyết Minh HDTV 720p x264

    Update Episode London

    Link download
     
  9. cakhokhe2011

    cakhokhe2011 New Member

    Tham gia ngày:
    20/9/11
    Bài viết:
    10
    Đã được cảm ơn:
    0
    Điểm thành tích:
    1
    Tiền:
    622 CR
    Ðề: Phim Tài Liệu Thế Giới Động Vật Và Thiên Nhiên Hoang Dã Thuyết Minh HDTV 720p x264

    Bác có file audio thuyet minh up lên được ko? Bản tiếng Anh em có rồi!
     
    Last edited by a moderator: 26/1/15
  10. iscol

    iscol Moderator

    Tham gia ngày:
    1/9/09
    Bài viết:
    4,432
    Đã được cảm ơn:
    5,462
    Điểm thành tích:
    113
    Giới tính:
    Nam
    Nghề nghiệp:
    Computer
    Nơi ở:
    Việt Nam
    Tiền:
    1,777 CR
    Ðề: Phim Tài Liệu Thế Giới Động Vật Và Thiên Nhiên Hoang Dã Thuyết Minh HDTV 720p x264

    Bác nên download bản em up đi, không phải em ít kỷ mà ko up file audio cho những bác đã có bản tiếng anh vì để khớp với file thuyết minh nên em phải biên tập lại file video nên sẽ không khớp với bản của các bác. Mong các bác thông cảm

    * Nếu bác vẫn muốn file audio thì pm cho em, em sẽ up lên cho bác....
     
  11. lenhhoxung

    lenhhoxung Active Member

    Tham gia ngày:
    8/1/09
    Bài viết:
    509
    Đã được cảm ơn:
    78
    Điểm thành tích:
    28
    Tiền:
    2,020 CR
    Ðề: Phim Tài Liệu Thế Giới Động Vật Và Thiên Nhiên Hoang Dã Thuyết Minh HDTV 720p x264

    Thanks bạn. Bé ở nhà sẽ thích lắm đây.
     
  12. tieupham263

    tieupham263 Active Member

    Tham gia ngày:
    12/4/10
    Bài viết:
    960
    Đã được cảm ơn:
    31
    Điểm thành tích:
    28
    Tiền:
    2,163 CR
    Ðề: Phim Tài Liệu Thế Giới Động Vật Và Thiên Nhiên Hoang Dã Thuyết Minh HDTV 720p x264

    Tui khoái coi film tài liệu có thuyết minh..vừa xem vừa nghe :-bd
     
  13. iscol

    iscol Moderator

    Tham gia ngày:
    1/9/09
    Bài viết:
    4,432
    Đã được cảm ơn:
    5,462
    Điểm thành tích:
    113
    Giới tính:
    Nam
    Nghề nghiệp:
    Computer
    Nơi ở:
    Việt Nam
    Tiền:
    1,777 CR
    Ðề: Phim Tài Liệu Thế Giới Động Vật Và Thiên Nhiên Hoang Dã Thuyết Minh HDTV 720p x264

    BBC.HD Thế Giới Tự Nhiên - Vương Quốc Của Kiến Sa Mạc 720p HDTV x264 [TM-THVL]

    File Info

    Format : Matroska
    Format version : Version 4 / Version 2
    File size : 1.88 GiB
    Duration : 55mn 34s
    Overall bit rate : 4 834 Kbps
    Encoded date : UTC 2015-01-28 11:12:03
    Writing application : mkvmerge v7.5.0 ('Glass Culture') 32bit built on Jan 4 2015 16:37:25
    Writing library : libebml v1.3.1 + libmatroska v1.4.2
    DURATION : 00:55:34.272000000
    NUMBER_OF_FRAMES : 104196
    NUMBER_OF_BYTES : 160045056
    _STATISTICS_WRITING_APP : mkvmerge v7.5.0 ('Glass Culture') 32bit built on Jan 4 2015 16:37:25
    _STATISTICS_WRITING_DATE_UTC : 2015-01-28 11:12:03
    _STATISTICS_TAGS : BPS DURATION NUMBER_OF_FRAMES NUMBER_OF_BYTES

    Video
    ID : 1
    Format : AVC
    Format/Info : Advanced Video Codec
    Format profile : High@L4.1
    Format settings, CABAC : Yes
    Format settings, ReFrames : 6 frames
    Codec ID : V_MPEG4/ISO/AVC
    Duration : 55mn 34s
    Bit rate : 4 000 Kbps
    Width : 1 280 pixels
    Height : 720 pixels
    Display aspect ratio : 16:9
    Frame rate mode : Constant
    Frame rate : 25.000 fps
    Color space : YUV
    Chroma subsampling : 4:2:0
    Bit depth : 8 bits
    Scan type : Progressive
    Bits/(Pixel*Frame) : 0.174
    Stream size : 1.54 GiB (82%)
    Writing library : x264 core 116 r2044 392e762
    Encoding settings : cabac=1 / ref=6 / deblock=1:0:0 / analyse=0x3:0x113 / me=umh / subme=9 / psy=1 / psy_rd=1.00:0.00 / mixed_ref=1 / me_range=24 / chroma_me=1 / trellis=1 / 8x8dct=1 / cqm=0 / deadzone=21,11 / fast_pskip=0 / chroma_qp_offset=-2 / threads=3 / sliced_threads=0 / nr=0 / decimate=1 / interlaced=0 / bluray_compat=0 / constrained_intra=0 / bframes=3 / b_pyramid=2 / b_adapt=1 / b_bias=0 / direct=1 / weightb=1 / open_gop=0 / weightp=2 / keyint=125 / keyint_min=25 / scenecut=40 / intra_refresh=0 / rc_lookahead=40 / rc=2pass / mbtree=1 / bitrate=4000 / ratetol=1.0 / qcomp=0.60 / qpmin=0 / qpmax=69 / qpstep=4 / cplxblur=20.0 / qblur=0.5 / ip_ratio=1.40 / aq=1:1.00
    Language : English
    Default : Yes
    Forced : No

    Audio #1
    ID : 2
    Format : AC-3
    Format/Info : Audio Coding 3
    Mode extension : CM (complete main)
    Format settings, Endianness : Big
    Codec ID : A_AC3
    Duration : 55mn 34s
    Bit rate mode : Constant
    Bit rate : 384 Kbps
    Channel(s) : 2 channels
    Channel positions : Front: L R
    Sampling rate : 48.0 KHz
    Bit depth : 16 bits
    Compression mode : Lossy
    Stream size : 153 MiB (8%)
    Language : Vietnamese
    Default : Yes
    Forced : No

    Audio #2
    ID : 3
    Format : AC-3
    Format/Info : Audio Coding 3
    Mode extension : CM (complete main)
    Format settings, Endianness : Big
    Codec ID : A_AC3
    Duration : 55mn 34s
    Bit rate mode : Constant
    Bit rate : 384 Kbps
    Channel(s) : 2 channels
    Channel positions : Front: L R
    Sampling rate : 48.0 KHz
    Bit depth : 16 bits
    Compression mode : Lossy
    Stream size : 153 MiB (8%)
    Default : No
    Forced : No

    Screenshot

    [​IMG]


    Download
    Fshare.vn




     
    thaylan1956 and ILoveMusic like this.
  14. iscol

    iscol Moderator

    Tham gia ngày:
    1/9/09
    Bài viết:
    4,432
    Đã được cảm ơn:
    5,462
    Điểm thành tích:
    113
    Giới tính:
    Nam
    Nghề nghiệp:
    Computer
    Nơi ở:
    Việt Nam
    Tiền:
    1,777 CR
    Ðề: Phim Tài Liệu Thế Giới Động Vật Và Thiên Nhiên Hoang Dã Thuyết Minh HDTV 720p x264

    [​IMG]

    IMAX Beavers Thuyết Minh 720p x264 ( Loài hải ly – Những thợ xây đập nước )

    File Info
    Format : Matroska
    Format version : Version 4 / Version 2
    File size : 875 MiB
    Duration : 18mn 3s
    Overall bit rate : 6 775 Kbps
    Encoded date : UTC 2015-01-30 07:35:47
    Writing application : mkvmerge v7.5.0 ('Glass Culture') 32bit built on Jan 4 2015 16:37:25
    Writing library : libebml v1.3.1 + libmatroska v1.4.2
    DURATION : 00:18:03.072000000
    NUMBER_OF_FRAMES : 33846
    NUMBER_OF_BYTES : 51987456
    _STATISTICS_WRITING_APP : mkvmerge v7.5.0 ('Glass Culture') 32bit built on Jan 4 2015 16:37:25
    _STATISTICS_WRITING_DATE_UTC : 2015-01-30 07:35:47
    _STATISTICS_TAGS : BPS DURATION NUMBER_OF_FRAMES NUMBER_OF_BYTES

    Video
    ID : 1
    Format : AVC
    Format/Info : Advanced Video Codec
    Format profile : High@L4.1
    Format settings, CABAC : Yes
    Format settings, ReFrames : 3 frames
    Codec ID : V_MPEG4/ISO/AVC
    Duration : 18mn 3s
    Bit rate : 5 808 Kbps
    Width : 1 280 pixels
    Height : 704 pixels
    Display aspect ratio : 16:9
    Frame rate mode : Constant
    Frame rate : 23.976 fps
    Color space : YUV
    Chroma subsampling : 4:2:0
    Bit depth : 8 bits
    Scan type : Progressive
    Bits/(Pixel*Frame) : 0.269
    Stream size : 750 MiB (86%)
    Language : English
    Default : Yes
    Forced : No

    Audio #1
    ID : 2
    Format : AC-3
    Format/Info : Audio Coding 3
    Mode extension : CM (complete main)
    Format settings, Endianness : Big
    Codec ID : A_AC3
    Duration : 18mn 3s
    Bit rate mode : Constant
    Bit rate : 384 Kbps
    Channel(s) : 2 channels
    Channel positions : Front: L R
    Sampling rate : 48.0 KHz
    Bit depth : 16 bits
    Compression mode : Lossy
    Stream size : 49.6 MiB (6%)
    Language : Vietnamese
    Default : Yes
    Forced : No

    Audio #2
    ID : 3
    Format : AC-3
    Format/Info : Audio Coding 3
    Mode extension : CM (complete main)
    Format settings, Endianness : Big
    Codec ID : A_AC3
    Duration : 18mn 3s
    Bit rate mode : Constant
    Bit rate : 448 Kbps
    Channel(s) : 6 channels
    Channel positions : Front: L C R, Side: L R, LFE
    Sampling rate : 48.0 KHz
    Bit depth : 16 bits
    Compression mode : Lossy
    Stream size : 57.8 MiB (7%)
    Default : No
    Forced : No


    Screenshot

    [​IMG]

    Download

    Fshare.vn



     
    ILoveMusic cảm ơn bài này.
  15. nfhvn

    nfhvn New Member

    Tham gia ngày:
    3/3/10
    Bài viết:
    23
    Đã được cảm ơn:
    1
    Điểm thành tích:
    3
    Tiền:
    767 CR
    Ðề: Phim Tài Liệu Thế Giới Động Vật Và Thiên Nhiên Hoang Dã Thuyết Minh HDTV 720p x264

    Thank chủ thớt, mong rằng sẽ còn có tiếp
     
  16. tranvanchien

    tranvanchien Member

    Tham gia ngày:
    19/11/13
    Bài viết:
    187
    Đã được cảm ơn:
    13
    Điểm thành tích:
    18
    Tiền:
    610 CR
    Ðề: Phim Tài Liệu Thế Giới Động Vật Và Thiên Nhiên Hoang Dã Thuyết Minh HDTV 720p x264

    Thích những loại phim khoa học này ghê. Thuyết minh đọc thật rõ ràng. Tuyệt vời ông mặt trời! Cảm ơn bạn rất nhiều.
     
  17. iscol

    iscol Moderator

    Tham gia ngày:
    1/9/09
    Bài viết:
    4,432
    Đã được cảm ơn:
    5,462
    Điểm thành tích:
    113
    Giới tính:
    Nam
    Nghề nghiệp:
    Computer
    Nơi ở:
    Việt Nam
    Tiền:
    1,777 CR
    Ðề: Phim Tài Liệu Thế Giới Động Vật Và Thiên Nhiên Hoang Dã Thuyết Minh HDTV 720p x264

    [​IMG]
    Những Cuộc Chạm Trán Trên Thảo Nguyên TM-THVL

    File Info

    Source: National.Geographic.Animal.Impact.Savannah.720p.HDTV.x264-SomeTV
    Format : Matroska
    Format version : Version 4 / Version 2
    File size : 845 MiB
    Duration : 35mn 7s
    Overall bit rate : 3 364 Kbps
    Encoded date : UTC 2015-02-04 16:17:44
    Writing application : mkvmerge v7.5.0 ('Glass Culture') 32bit built on Jan 4 2015 16:37:25
    Writing library : libebml v1.3.1 + libmatroska v1.4.2
    DURATION : 00:35:06.976000000
    NUMBER_OF_FRAMES : 65843
    NUMBER_OF_BYTES : 101134848
    _STATISTICS_WRITING_APP : mkvmerge v7.5.0 ('Glass Culture') 32bit built on Jan 4 2015 16:37:25
    _STATISTICS_WRITING_DATE_UTC : 2015-02-04 16:17:44
    _STATISTICS_TAGS : BPS DURATION NUMBER_OF_FRAMES NUMBER_OF_BYTES

    Video
    ID : 1
    Format : AVC
    Format/Info : Advanced Video Codec
    Format profile : High@L4.1
    Format settings, CABAC : Yes
    Format settings, ReFrames : 4 frames
    Format settings, GOP : M=1, N=2
    Codec ID : V_MPEG4/ISO/AVC
    Duration : 35mn 7s
    Bit rate : 2 913 Kbps
    Width : 1 280 pixels
    Height : 720 pixels
    Display aspect ratio : 16:9
    Frame rate mode : Constant
    Frame rate : 25.000 fps
    Color space : YUV
    Chroma subsampling : 4:2:0
    Bit depth : 8 bits
    Scan type : Progressive
    Bits/(Pixel*Frame) : 0.126
    Stream size : 732 MiB (87%)
    Language : English
    Default : Yes
    Forced : No
    Color primaries : BT.709
    Transfer characteristics : BT.709
    Matrix coefficients : BT.709

    Audio
    ID : 2
    Format : AC-3
    Format/Info : Audio Coding 3
    Mode extension : CM (complete main)
    Format settings, Endianness : Big
    Codec ID : A_AC3
    Duration : 35mn 7s
    Bit rate mode : Constant
    Bit rate : 384 Kbps
    Channel(s) : 6 channels
    Channel positions : Front: L C R, Side: L R, LFE
    Sampling rate : 48.0 KHz
    Bit depth : 16 bits
    Compression mode : Lossy
    Stream size : 96.5 MiB (11%)
    Language : Vietnamese
    Default : Yes
    Forced : No


    Screenshot

    [​IMG]

    Download

    Fshare


    National Geographic Animal Impact Savannah TM




     
    thaylan1956 cảm ơn bài này.
  18. iscol

    iscol Moderator

    Tham gia ngày:
    1/9/09
    Bài viết:
    4,432
    Đã được cảm ơn:
    5,462
    Điểm thành tích:
    113
    Giới tính:
    Nam
    Nghề nghiệp:
    Computer
    Nơi ở:
    Việt Nam
    Tiền:
    1,777 CR
    Ðề: Phim Tài Liệu Thế Giới Động Vật Và Thiên Nhiên Hoang Dã Thuyết Minh HDTV 720p x264

    [​IMG]
    Xe Tăng - Cỗ Máy Chiến Tranh TM-VTC


    File Info

    Source: National Geographic War Machines Tank 720p HDTV x264-DiCH
    Format : Matroska
    Format version : Version 4 / Version 2
    File size : 1.22 GiB
    Duration : 46mn 52s
    Overall bit rate : 3 712 Kbps
    Encoded date : UTC 2015-02-16 13:11:40
    Writing application : mkvmerge v7.6.0 ('Garden of Dreams') 32bit built on Feb 8 2015 12:51:39
    Writing library : libebml v1.3.1 + libmatroska v1.4.2
    DURATION : 00:46:52.544000000
    NUMBER_OF_FRAMES : 87892
    NUMBER_OF_BYTES : 135002112
    _STATISTICS_WRITING_APP : mkvmerge v7.6.0 ('Garden of Dreams') 32bit built on Feb 8 2015 12:51:39
    _STATISTICS_WRITING_DATE_UTC : 2015-02-16 13:11:40
    _STATISTICS_TAGS : BPS DURATION NUMBER_OF_FRAMES NUMBER_OF_BYTES

    Video
    ID : 1
    Format : AVC
    Format/Info : Advanced Video Codec
    Format profile : High@L3.1
    Format settings, CABAC : Yes
    Format settings, ReFrames : 3 frames
    Codec ID : V_MPEG4/ISO/AVC
    Duration : 46mn 52s
    Bit rate : 2 933 Kbps
    Width : 1 280 pixels
    Height : 720 pixels
    Display aspect ratio : 16:9
    Frame rate mode : Constant
    Frame rate : 25.000 fps
    Color space : YUV
    Chroma subsampling : 4:2:0
    Bit depth : 8 bits
    Scan type : Progressive
    Bits/(Pixel*Frame) : 0.127
    Stream size : 1.00 GiB (82%)
    Writing library : x264 core 76 r1268 d542926
    Encoding settings : cabac=1 / ref=3 / deblock=1:1:1 / analyse=0x3:0x113 / me=hex / subme=6 / psy=1 / psy_rd=0.0:1.0 / mixed_ref=1 / me_range=16 / chroma_me=1 / trellis=1 / 8x8dct=1 / cqm=0 / deadzone=21,11 / chroma_qp_offset=-2 / threads=6 / nr=0 / decimate=1 / mbaff=0 / bframes=3 / b_pyramid=0 / b_adapt=1 / b_bias=0 / direct=1 / wpredb=1 / keyint=250 / keyint_min=25 / scenecut=40 / rc_lookahead=40 / rc=2pass / mbtree=1 / bitrate=2933 / ratetol=1.0 / qcomp=0.60 / qpmin=10 / qpmax=51 / qpstep=4 / cplxblur=20.0 / qblur=0.5 / ip_ratio=1.40 / aq=1:1.00
    Language : English
    Default : Yes
    Forced : No

    Audio #1
    ID : 2
    Format : AC-3
    Format/Info : Audio Coding 3
    Mode extension : CM (complete main)
    Format settings, Endianness : Big
    Codec ID : A_AC3
    Duration : 46mn 52s
    Bit rate mode : Constant
    Bit rate : 384 Kbps
    Channel(s) : 6 channels
    Channel positions : Front: L C R, Side: L R, LFE
    Sampling rate : 48.0 KHz
    Bit depth : 16 bits
    Compression mode : Lossy
    Stream size : 129 MiB (10%)
    Language : Vietnamese
    Default : Yes
    Forced : No

    Audio #2
    ID : 3
    Format : AC-3
    Format/Info : Audio Coding 3
    Mode extension : CM (complete main)
    Format settings, Endianness : Big
    Codec ID : A_AC3
    Duration : 46mn 52s
    Bit rate mode : Constant
    Bit rate : 192 Kbps
    Channel(s) : 2 channels
    Channel positions : Front: L R
    Sampling rate : 48.0 KHz
    Bit depth : 16 bits
    Compression mode : Lossy
    Stream size : 64.4 MiB (5%)
    Default : No
    Forced : No

    Screenshot

    [​IMG]

    Download

    Fshare

    National Geographic War Machines Tank TM

     
  19. iscol

    iscol Moderator

    Tham gia ngày:
    1/9/09
    Bài viết:
    4,432
    Đã được cảm ơn:
    5,462
    Điểm thành tích:
    113
    Giới tính:
    Nam
    Nghề nghiệp:
    Computer
    Nơi ở:
    Việt Nam
    Tiền:
    1,777 CR
    Ðề: Phim Tài Liệu Thế Giới Động Vật Và Thiên Nhiên Hoang Dã Thuyết Minh HDTV 720p x264

    [​IMG]
    Cuộc Chiến Lãnh Thổ Của Sư Tử Châu Phi TM-SCTV

    File Info

    Format : Matroska
    Format version : Version 4 / Version 2
    File size : 1.47 GiB
    Duration : 44mn 25s
    Overall bit rate mode : Variable
    Overall bit rate : 4 746 Kbps
    Encoded date : UTC 2015-02-17 18:36:29
    Writing application : mkvmerge v7.6.0 ('Garden of Dreams') 32bit built on Feb 8 2015 12:51:39
    Writing library : libebml v1.3.1 + libmatroska v1.4.2
    DURATION : 00:44:25.472000000
    NUMBER_OF_FRAMES : 83296
    NUMBER_OF_BYTES : 127942656
    _STATISTICS_WRITING_APP : mkvmerge v7.6.0 ('Garden of Dreams') 32bit built on Feb 8 2015 12:51:39
    _STATISTICS_WRITING_DATE_UTC : 2015-02-17 18:36:29
    _STATISTICS_TAGS : BPS DURATION NUMBER_OF_FRAMES NUMBER_OF_BYTES

    Video
    ID : 1
    Format : AVC
    Format/Info : Advanced Video Codec
    Format profile : High@L4.0
    Format settings, CABAC : Yes
    Format settings, ReFrames : 3 frames
    Codec ID : V_MPEG4/ISO/AVC
    Duration : 44mn 25s
    Bit rate mode : Variable
    Bit rate : 4 361 Kbps
    Maximum bit rate : 25.0 Mbps
    Width : 1 280 pixels
    Height : 720 pixels
    Display aspect ratio : 16:9
    Frame rate mode : Constant
    Frame rate : 25.000 fps
    Color space : YUV
    Chroma subsampling : 4:2:0
    Bit depth : 8 bits
    Scan type : Progressive
    Bits/(Pixel*Frame) : 0.189
    Stream size : 1.32 GiB (90%)
    Writing library : x264 core 68 r1195M 5d75a9b
    Encoding settings : cabac=1 / ref=3 / deblock=1:0:0 / analyse=0x3:0x133 / me=umh / subme=7 / psy_rd=1.0:0.0 / mixed_ref=1 / me_range=16 / chroma_me=1 / trellis=1 / 8x8dct=1 / cqm=0 / deadzone=21,11 / chroma_qp_offset=-2 / threads=6 / nr=0 / decimate=1 / mbaff=0 / bframes=3 / b_pyramid=0 / b_adapt=1 / b_bias=0 / direct=3 / wpredb=1 / keyint=250 / keyint_min=25 / scenecut=40 / rc=2pass / bitrate=4361 / ratetol=1.0 / qcomp=0.60 / qpmin=10 / qpmax=51 / qpstep=4 / cplxblur=20.0 / qblur=0.5 / vbv_maxrate=25000 / vbv_bufsize=25000 / ip_ratio=1.40 / pb_ratio=1.30 / aq=1:1.00
    Language : English
    Default : Yes
    Forced : No

    Audio
    ID : 2
    Format : AC-3
    Format/Info : Audio Coding 3
    Mode extension : CM (complete main)
    Format settings, Endianness : Big
    Codec ID : A_AC3
    Duration : 44mn 25s
    Bit rate mode : Constant
    Bit rate : 384 Kbps
    Channel(s) : 6 channels
    Channel positions : Front: L C R, Side: L R, LFE
    Sampling rate : 48.0 KHz
    Bit depth : 16 bits
    Compression mode : Lossy
    Stream size : 122 MiB (8%)
    Language : English
    Default : Yes
    Forced : No

    Screenshot

    [​IMG]

    Download

    Fshare



     
  20. 0803

    0803 Member

    Tham gia ngày:
    22/11/14
    Bài viết:
    139
    Đã được cảm ơn:
    15
    Điểm thành tích:
    18
    Tiền:
    439 CR
    Ðề: Phim Tài Liệu Thế Giới Động Vật Và Thiên Nhiên Hoang Dã Thuyết Minh HDTV 720p x264

    Bác Iscol sắm Tết đến đâu rồi ạ. Nhà bác trong Nam ạ, chắc đi chơi đường hoa Tết đẹp lắm!
     

Chia sẻ trang này