[Fshare] [Update New Episode 16/05/18] Phim Tài Liệu Thế Giới Động Vật Và Thiên Nhiên Hoang Dã Thuyết Minh

Thảo luận trong 'Phim tài liệu - Documentaries' bắt đầu bởi iscol, 17/1/15.

  1. gpk

    gpk Well-Known Member

    Tham gia ngày:
    17/7/10
    Bài viết:
    1,526
    Đã được cảm ơn:
    1,254
    Giới tính:
    Nam
    Nơi ở:
    Việt Nam
    Ðề: [Update New Episode 11/12/15] Phim Tài Liệu Thế Giới Động Vật Và Thiên Nhiên Hoang Dã Thuyết Minh

    Tính em sợ rắn từ nhỏ, xem con Black Mamba mà thấy khiếp quá. Sợ nhưng mà kích thích lắm :)
     
  2. iscol

    iscol Well-Known Member

    Tham gia ngày:
    1/9/09
    Bài viết:
    4,551
    Đã được cảm ơn:
    9,739
    Giới tính:
    Nam
    Nghề nghiệp:
    Computer
    Nơi ở:
    Việt Nam
    Ðề: [Update New Episode 11/12/15] Phim Tài Liệu Thế Giới Động Vật Và Thiên Nhiên Hoang Dã Thuyết Minh

    Tựa chính xác là Secret Brazil còn tựa mà mình ghi là Wild Secret Brazil (Wild ở đây là viết tắt cho National Geographic Wild).
     
  3. iscol

    iscol Well-Known Member

    Tham gia ngày:
    1/9/09
    Bài viết:
    4,551
    Đã được cảm ơn:
    9,739
    Giới tính:
    Nam
    Nghề nghiệp:
    Computer
    Nơi ở:
    Việt Nam
    Ðề: [Update New Episode 11/12/15] Phim Tài Liệu Thế Giới Động Vật Và Thiên Nhiên Hoang Dã Thuyết Minh

    Chưa gặp nó ở ngoài như thế nào nhưng xem trong phim là thấy khiếp rồi, ngồi xem tới đoạn khi con rắn mở cái miệng ra đen ngòm là mình nổi da gà rồi. Theo thông tin trong phim nói khi vừa chui ra khỏi trứng thì rắn con đã có nọc độc và có đủ khả năng săn mồi, loài này không rình mồi mà nó đuổi theo con mồi, loài rắn này bản tính rất hung hăng nên nó được xếp trong top 10 loài động vật nguy hiểm trên thế giới, nếu có gặp nó thì chỉ có chạy hoặc chết.
     
  4. chimkhongcanh

    chimkhongcanh Well-Known Member

    Tham gia ngày:
    13/4/10
    Bài viết:
    640
    Đã được cảm ơn:
    447
    Giới tính:
    Nam
    Nghề nghiệp:
    Báo chí
    Nơi ở:
    Viet Nam
    Web:
    Ðề: [Update New Episode 11/12/15] Phim Tài Liệu Thế Giới Động Vật Và Thiên Nhiên Hoang Dã Thuyết Minh

    Tình hình là thấy bộ Wildest Africa trong máy mình linh tinh quá: HDTV, Bluray rip, DVD rip... file thì 700mb, file thì 3 Gb. Nhặt lại mấy file TM của bạn Dark_devil 90 edit lại up lên đây hi vọng các bác có bộ HDTV hay BRip nào đẹp thì sync lại. Bộ của Dark_devil 90 thu qua Nextv tiếng cũng tốt nhưng để tín hiệu Audio input lúc rec hơi lớn nên hơi vỡ tiếng, (có file Okavango lại hơi nhỏ chút). Có mấy bộ đang dở chiến nốt đi iscol ơi!

    Animal Planet Chanel 13-12-2015 SDTV Thuyết minh Việt


    1. Wildest Africa S01E05 Cape Coast
    2. Wildest Africa S01E03 Okavango (Next tv)
    3. Wildest Africa S01E02 Congo
    4. Wildest Africa S01E01 Virungas
    5. WILDEST AFRICA - Okavango (Mytv)
    6. ĐÔNG DƯƠNG HOANG DÃ NHẤT [WILDEST INDOCHINA] - Thailand
    7. TANKED (S5) - Sherri Shepherd On The Rocks - IM ALIVE - Blood Saviours
    8. MONSTER CROC INVASION
    9. AUSTIN STEVENS ADVENTURES - Australias Lost Eden
    10. THE MAGIC OF THE BIG BLUE - North America


     
  5. iscol

    iscol Well-Known Member

    Tham gia ngày:
    1/9/09
    Bài viết:
    4,551
    Đã được cảm ơn:
    9,739
    Giới tính:
    Nam
    Nghề nghiệp:
    Computer
    Nơi ở:
    Việt Nam
    Ðề: [Update New Episode 11/12/15] Phim Tài Liệu Thế Giới Động Vật Và Thiên Nhiên Hoang Dã Thuyết Minh

    Wildest Africa đang làm dang dở hiện vẫn còn nằm đó vì em đang tập trung làm mấy bộ NatGeo Wild. Bộ Magic of Big Blue còn 2 tập nữa anh xem khi nào có thì cap lại nha.
     
  6. hoangnamhuu

    hoangnamhuu Active Member

    Tham gia ngày:
    10/11/11
    Bài viết:
    114
    Đã được cảm ơn:
    112
    Giới tính:
    Nam
    Ðề: [Update New Episode 11/12/15] Phim Tài Liệu Thế Giới Động Vật Và Thiên Nhiên Hoang Dã Thuyết Minh

    cam on bac nhieu
     
  7. iscol

    iscol Well-Known Member

    Tham gia ngày:
    1/9/09
    Bài viết:
    4,551
    Đã được cảm ơn:
    9,739
    Giới tính:
    Nam
    Nghề nghiệp:
    Computer
    Nơi ở:
    Việt Nam
    Ðề: [Update New Episode 11/12/15] Phim Tài Liệu Thế Giới Động Vật Và Thiên Nhiên Hoang Dã Thuyết Minh

    [​IMG]
    Wildest Hawaii 720p Bluray H264 ViE AC3-DON
    (National Geographic Wild Hawaii)
    Thuyết minh: SCTV
    Media Info

    Mã:
    Format                      : Matroska
    Format version              : Version 4 / Version 2
    File size                   : 2.47 GiB
    Duration                    : 44mn 2s
    Overall bit rate            : 8 023 Kbps
    Movie name                  : Encoded  by  DON  2014
    Encoded date                : UTC 2015-12-13 12:43:23
    Writing application         : mkvmerge v8.6.1 ('Flying') 32bit
    Writing library             : libebml v1.3.3 + libmatroska v1.4.4
    
    Video
    ID                          : 1
    Format                      : AVC
    Format/Info                 : Advanced Video Codec
    Format profile              : High@L4.1
    Format settings, CABAC      : Yes
    Format settings, ReFrames   : 7 frames
    Codec ID                    : V_MPEG4/ISO/AVC
    Duration                    : 44mn 2s
    Bit rate                    : 7 254 Kbps
    Width                       : 1 280 pixels
    Height                      : 720 pixels
    Display aspect ratio        : 16:9
    Frame rate mode             : Constant
    Frame rate                  : 25.000 fps
    Color space                 : YUV
    Chroma subsampling          : 4:2:0
    Bit depth                   : 8 bits
    Scan type                   : Progressive
    Bits/(Pixel*Frame)          : 0.315
    Stream size                 : 2.23 GiB (90%)
    Title                       : DON  2014
    Writing library             : x264 core 142 r2431 ac76440
    Encoding settings           : cabac=1 / ref=7 / deblock=1:-3:-3 / analyse=0x3:0x113 / me=umh / subme=10 / psy=1 / psy_rd=1.00:0.08 / mixed_ref=1 / me_range=24 / chroma_me=1 / trellis=2 / 8x8dct=1 / cqm=0 / deadzone=21,11 / fast_pskip=0 / chroma_qp_offset=-3 / threads=6 / lookahead_threads=1 / sliced_threads=0 / nr=0 / decimate=0 / interlaced=0 / bluray_compat=0 / constrained_intra=0 / bframes=7 / b_pyramid=2 / b_adapt=2 / b_bias=0 / direct=3 / weightb=1 / open_gop=0 / weightp=2 / keyint=250 / keyint_min=25 / scenecut=40 / intra_refresh=0 / rc_lookahead=50 / rc=crf / mbtree=1 / crf=17.5 / qcomp=0.70 / qpmin=10 / qpmax=56 / qpstep=4 / vbv_maxrate=50000 / vbv_bufsize=60000 / crf_max=0.0 / nal_hrd=none / filler=0 / ip_ratio=1.40 / aq=2:0.80
    Language                    : English
    Default                     : Yes
    Forced                      : No
    
    Audio #1
    ID                          : 2
    Format                      : AC-3
    Format/Info                 : Audio Coding 3
    Mode extension              : CM (complete main)
    Format settings, Endianness : Big
    Codec ID                    : A_AC3
    Duration                    : 43mn 58s
    Bit rate mode               : Constant
    Bit rate                    : 384 Kbps
    Channel(s)                  : 6 channels
    Channel positions           : Front: L C R, Side: L R, LFE
    Sampling rate               : 48.0 KHz
    Frame rate                  : 31.250 fps (1536 spf)
    Compression mode            : Lossy
    Stream size                 : 121 MiB (5%)
    Language                    : Vietnamese
    Default                     : Yes
    Forced                      : No
    
    Audio #2
    ID                          : 3
    Format                      : AC-3
    Format/Info                 : Audio Coding 3
    Mode extension              : CM (complete main)
    Format settings, Endianness : Big
    Codec ID                    : A_AC3
    Duration                    : 44mn 2s
    Bit rate mode               : Constant
    Bit rate                    : 384 Kbps
    Channel(s)                  : 6 channels
    Channel positions           : Front: L C R, Side: L R, LFE
    Sampling rate               : 48.0 KHz
    Frame rate                  : 31.250 fps (1536 spf)
    Compression mode            : Lossy
    Stream size                 : 121 MiB (5%)
    Title                       : English
    Default                     : No
    Forced                      : No
    

    Wild Hawaii

    Seven millions years ago Hawaii rose from the sea a volcanic wasteland, how these islands transformed themselves into paradise is a story that defies the odds and challenges our expectations. Nat Geo WILD takes us on an untamed journey to Hawaii, a place that through an alchemy of fire, ice and water has become an experiment in creation.


    From its hot molten core to the mega sized waves battering its coast, Hawaii is an untamed and very wild bit of paradise that continues to transform itself and challenge your expectations. Wild Hawaii takes you on a breathtaking journey to an island of natural beauty; a place that through an alchemy of fire, ice and water has transformed itself from a volcanic wasteland into a paradise on earth.


    Episodes

    01. Land of Fire (Vùng Đất của Lữa)
    Seven million years ago, Hawaii rose from the sea a volcanic wasteland. How did these islands transform themselves into a lush paradise?

    02. Secrets Of The Deep (Bí Mật Dưới Biển Sâu)
    Creatures great and small struggle to live in Hawaii's waters, battling the lava, currents and each other in an epic tale of survival.


    Screenshot

    [​IMG]


    Download

    Fshare.vn


    Link tải phim


    E1 Land of Fire
    http://www.fshare.vn/file/4SFGR6AN6NGZ

    E2 Secrets of The Deep
    http://www.fshare.vn/file/LU9F2SHR54UP

    Bản 1080p Bluray-DON (upload hoang_thuy)

    https://www.fshare.vn/folder/B917JVJS2MPF














     
    Chỉnh sửa cuối: 14/12/15
  8. engtilldie

    engtilldie New Member

    Tham gia ngày:
    19/5/10
    Bài viết:
    19
    Đã được cảm ơn:
    0
    Ðề: [Update New Episode 11/12/15] Phim Tài Liệu Thế Giới Động Vật Và Thiên Nhiên Hoang Dã Thuyết Minh

    Video black mamba, khoảng phút 40 đúng "black mamba là loài máu nóng....". Đây chỉ là một trong rất nhiều lỗi dịch thuật. Xin lỗi chủ thớt, mình chỉ là người down và xem chứ không đóng góp gì cho các bạn trong việc tìm, ghép audio và up, nhưng mình mạn phép đề nghị các bạn vẫn giữ lại phần audio tiếng Anh gốc được không ngoài phần audio tiếng Việt được không? Nghe phần thuyết minh nhiều chỗ sai ngữ cảnh, nhiều chỗ sai kiến thức, mình chỉ ước có phần tiếng Anh rõ ràng để đối chiếu.

    Hai cha con cùng xem, con mình bảo là cô trên TV rõ ràng bảo là máu nóng, sao ba cứ bảo không phải?
     
    Chỉnh sửa cuối: 14/12/15
  9. iscol

    iscol Well-Known Member

    Tham gia ngày:
    1/9/09
    Bài viết:
    4,551
    Đã được cảm ơn:
    9,739
    Giới tính:
    Nam
    Nghề nghiệp:
    Computer
    Nơi ở:
    Việt Nam
    Ðề: [Update New Episode 11/12/15] Phim Tài Liệu Thế Giới Động Vật Và Thiên Nhiên Hoang Dã Thuyết Minh

    Cám ơn bác đã đóng góp, thật ra thì mình cũng biết thuyết minh đôi lúc ko được chính xác nhưng mình ko thể fix vì nguồn thuyết minh được lấy từ các đài truyền hình chứ ko phải của mình nên đành chịu. Tất cả các file mình mình post đều giữ lại audio gốc (ngôn ngữ tùy thuộc vào nguồn chia sẽ).

    Nếu bác cần bản tiếng anh của phim Black Mamba thì mình có bản do kênh Smithsonian Channel chiếu
     
  10. hoangthanh_mobi

    hoangthanh_mobi Member

    Tham gia ngày:
    21/1/11
    Bài viết:
    43
    Đã được cảm ơn:
    5
    Ðề: [Update New Episode 11/12/15] Phim Tài Liệu Thế Giới Động Vật Và Thiên Nhiên Hoang Dã Thuyết Minh

    Thực sự dịch thuật nhiều chỗ em thấy rất lạ và cũng không biết kiến thức mình đúng không. Như báo Cheetah thường gọi là Báo Gê Pa hoặc báo săn, còn leopard là báo đốm hay báo hoa mai. nhưng nghe thuyết minh thì không thấy có sự phân biệt gì cả. hay báo đốm được gọi chung?
     
  11. hoang_thuy

    hoang_thuy Huyền Thoại

    Tham gia ngày:
    10/6/09
    Bài viết:
    2,133
    Đã được cảm ơn:
    5,110
    Ðề: [Update New Episode 11/12/15] Phim Tài Liệu Thế Giới Động Vật Và Thiên Nhiên Hoang Dã Thuyết Minh

    Khó lòng đòi hỏi người biên tập nằm rõ đời sống, tập quán các loài thú lắm hoangthanh_mobi và các bạn ơi, nên họ biên tập sai là điều tất nhiên và chúng ta phải chấp nhận như vậy rồi tự sửa trong lòng khi xem đến các đoạn phim đó. Phải lăn lộn với phim tài liệu vài năm mới nắm rõ một số chi tiết về các loài chim thú. Td:

    + Đại bàng theo chế độ "mẫu hệ" nên khi xung trận là đại bàng mái "cầm quân", con trống ở lại giữ tổ và trông con. Đó là các loài đại bàng làm tổ trên cây, nhưng không đúng với đại bàng vàng và đại bàng biển Steller ở Kamchatka (Nga).

    + Nói bầy sư tử là ý chỉ con cái và các sư tử con. Sư tử đực không phải lúc nào cũng gắn bó đến "răng long đầu bạc" với một con cái. Nếu nó chiến thắng con đực ở đàn khác thì nó sẽ chiếm hữu con sư tử cái kia và giết sạch các con non để sư tử cái này mau động dục và "yêu" nó.

    + Báo Ghêpa (cheetah) xuất phát từ tiếng Pháp guépard ý chỉ báo châu Phi (có hai vằn đen chạy dọc trên mặt) loài này có thể tăng tốc lên 100km/giờ trong vài giây để săn cho được con mồi. Trái lại leopard là báo đốm ở châu Á và Nam Mỹ không thể tăng tốc như thế nhưng lại có thể trèo cây và mang cả một con nai lên giấu trên cây ăn dần. Mình khi chưa bước vào phim tài liệu cũng không phân biệt được cheetahleopard.

    Nói chung chúng ta không thể đòi hỏi người biên tập cho các TM ở đài truyền hình có đầy đủ kiến thức về các loài vật được, chứ BBC, Discovery hay các hãng phim tài liệu muốn quay một loài vật nào đều có chuyên gia về chúng để làm sao cảnh quay đạt hiệu quả mà đội quay không gặp bất cứ nguy hiểm nào.
     
  12. hoang_thuy

    hoang_thuy Huyền Thoại

    Tham gia ngày:
    10/6/09
    Bài viết:
    2,133
    Đã được cảm ơn:
    5,110
    Ðề: [Update New Episode 11/12/15] Phim Tài Liệu Thế Giới Động Vật Và Thiên Nhiên Hoang Dã Thuyết Minh

    WILD HAWAII mình có bản 1080p của DON (đã mux TM vào), bạn nào ái mộ thì down ở đây:

    https://www.fshare.vn/folder/B917JVJS2MPF
     
  13. iscol

    iscol Well-Known Member

    Tham gia ngày:
    1/9/09
    Bài viết:
    4,551
    Đã được cảm ơn:
    9,739
    Giới tính:
    Nam
    Nghề nghiệp:
    Computer
    Nơi ở:
    Việt Nam
    Ðề: [Update New Episode 11/12/15] Phim Tài Liệu Thế Giới Động Vật Và Thiên Nhiên Hoang Dã Thuyết Minh

    [​IMG]
    National Geographic Wild Mississippi HDTV 720p x264 AC3 ViE
    Thuyết minh: SCTV
    Media Info


    Mã:
    Format                      : Matroska
    Format version              : Version 4 / Version 2
    File size                   : 1.74 GiB
    Duration                    : 44mn 59s
    Overall bit rate            : 5 542 Kbps
    Encoded date                : UTC 2015-12-13 23:11:32
    Writing application         : mkvmerge v8.6.1 ('Flying') 32bit
    Writing library             : libebml v1.3.3 + libmatroska v1.4.4
    
    Video
    ID                          : 1
    Format                      : AVC
    Format/Info                 : Advanced Video Codec
    Format profile              : High@L4.1
    Format settings, CABAC      : Yes
    Format settings, ReFrames   : 5 frames
    Codec ID                    : V_MPEG4/ISO/AVC
    Duration                    : 44mn 59s
    Bit rate                    : 4 772 Kbps
    Width                       : 1 280 pixels
    Height                      : 720 pixels
    Display aspect ratio        : 16:9
    Frame rate mode             : Constant
    Frame rate                  : 25.000 fps
    Color space                 : YUV
    Chroma subsampling          : 4:2:0
    Bit depth                   : 8 bits
    Scan type                   : Progressive
    Bits/(Pixel*Frame)          : 0.207
    Stream size                 : 1.50 GiB (86%)
    Writing library             : x264 core 124 r2197 69a0443
    Encoding settings           : cabac=1 / ref=5 / deblock=1:-1:-1 / analyse=0x3:0x113 / me=umh / subme=8 / psy=1 / psy_rd=1.00:0.15 / mixed_ref=1 / me_range=16 / chroma_me=1 / trellis=1 / 8x8dct=1 / cqm=0 / deadzone=21,11 / fast_pskip=1 / chroma_qp_offset=-3 / threads=6 / sliced_threads=0 / nr=0 / decimate=1 / interlaced=0 / bluray_compat=0 / constrained_intra=0 / bframes=3 / b_pyramid=2 / b_adapt=2 / b_bias=0 / direct=3 / weightb=1 / open_gop=0 / weightp=2 / keyint=250 / keyint_min=25 / scenecut=40 / intra_refresh=0 / rc_lookahead=50 / rc=crf / mbtree=1 / crf=20.0 / qcomp=0.60 / qpmin=0 / qpmax=69 / qpstep=4 / ip_ratio=1.40 / aq=1:1.00
    Default                     : Yes
    Forced                      : No
    
    Audio #1
    ID                          : 2
    Format                      : AC-3
    Format/Info                 : Audio Coding 3
    Mode extension              : CM (complete main)
    Format settings, Endianness : Big
    Codec ID                    : A_AC3
    Duration                    : 44mn 58s
    Bit rate mode               : Constant
    Bit rate                    : 384 Kbps
    Channel(s)                  : 6 channels
    Channel positions           : Front: L C R, Side: L R, LFE
    Sampling rate               : 48.0 KHz
    Frame rate                  : 31.250 fps (1536 spf)
    Compression mode            : Lossy
    Stream size                 : 124 MiB (7%)
    Language                    : Vietnamese
    Default                     : Yes
    Forced                      : No
    
    Audio #2
    ID                          : 3
    Format                      : AC-3
    Format/Info                 : Audio Coding 3
    Format profile              : Dolby Digital
    Mode extension              : CM (complete main)
    Format settings, Endianness : Big
    Codec ID                    : A_AC3
    Duration                    : 44mn 59s
    Bit rate mode               : Constant
    Bit rate                    : 384 Kbps
    Channel(s)                  : 2 channels
    Channel positions           : Front: L R
    Sampling rate               : 48.0 KHz
    Frame rate                  : 31.250 fps (1536 spf)
    Compression mode            : Lossy
    Stream size                 : 124 MiB (7%)
    Title                       : English
    Default                     : No
    Forced                      : No
    

    Wild Mississippi

    Information:
    Witness the rarely-seen magic of the longest river system in the United States and the drama of the creatures that are drawn to the Mississippi for survival including bears, wolves, wild boar, bull sharks and alligators. The exploration of North America’s greatest waterway is a rollercoaster ride of drama with visuals sure to take your breath away.

    Episodes Guide:

    Wild Mississippi E01 Deep Freeze
    Starting at the head of this great river, follow the path of the Mississippi to find hungry wolves, freezing bobcats, warring bald eagles, hapless porcupines and phantom owls.

    Wild Mississippi E02 Raging Waters
    As spring breaks along the Mississippi, melting snow and ice create an epic flood. The high water washes beavers and birds out of their homes, leaving them vulnerable to a host of forest predators.

    Wild Mississippi E03 Delta Blues
    Heading south, the Mississippi joins with an even more flooded Ohio River to form a union of destruction, challenging man and wildlife as the water rises at a rate of two inches every hour


     
  14. hoang_thuy

    hoang_thuy Huyền Thoại

    Tham gia ngày:
    10/6/09
    Bài viết:
    2,133
    Đã được cảm ơn:
    5,110
    Ðề: [Update New Episode 11/12/15] Phim Tài Liệu Thế Giới Động Vật Và Thiên Nhiên Hoang Dã Thuyết Minh

    Wkjnguyen ơi nếu trong HDD còn giữ Nat Geo Wild Mississippi 1080i hdtv thì share cho mình với, thấy trong bogspot mà không down được, thanks.
     
  15. iscol

    iscol Well-Known Member

    Tham gia ngày:
    1/9/09
    Bài viết:
    4,551
    Đã được cảm ơn:
    9,739
    Giới tính:
    Nam
    Nghề nghiệp:
    Computer
    Nơi ở:
    Việt Nam
    Ðề: [Update New Episode 11/12/15] Phim Tài Liệu Thế Giới Động Vật Và Thiên Nhiên Hoang Dã Thuyết Minh

    [​IMG]
    National Geographic Wild The Zambezi 720p HDTV x264 AC3 ViE

    Director: Michael Schlamberger | Producer: Rita Schlamberger
    Genre: Documentary | Produced In: 2010 | Thuyết minh: SCTV Channel
    Media information:

    Mã:
    Format                      : Matroska
    Format version              : Version 4 / Version 2
    File size                   : 2.06 GiB
    Duration                    : 44mn 59s
    Overall bit rate            : 6 555 Kbps
    Encoded date                : UTC 2015-12-14 05:21:06
    Writing application         : mkvmerge v8.6.1 ('Flying') 32bit
    Writing library             : libebml v1.3.3 + libmatroska v1.4.4
    
    Video
    ID                          : 1
    Format                      : AVC
    Format/Info                 : Advanced Video Codec
    Format profile              : High@L4.1
    Format settings, CABAC      : Yes
    Format settings, ReFrames   : 5 frames
    Codec ID                    : V_MPEG4/ISO/AVC
    Duration                    : 44mn 59s
    Bit rate                    : 5 980 Kbps
    Width                       : 1 280 pixels
    Height                      : 720 pixels
    Display aspect ratio        : 16:9
    Frame rate mode             : Constant
    Frame rate                  : 25.000 fps
    Color space                 : YUV
    Chroma subsampling          : 4:2:0
    Bit depth                   : 8 bits
    Scan type                   : Progressive
    Bits/(Pixel*Frame)          : 0.260
    Stream size                 : 1.88 GiB (91%)
    Writing library             : x264 core 98 r1649 c54c47d
    Encoding settings           : cabac=1 / ref=5 / deblock=1:-3:-3 / analyse=0x3:0x133 / me=umh / subme=10 / psy=1 / psy_rd=1.00:0.10 / mixed_ref=1 / me_range=48 / chroma_me=1 / trellis=2 / 8x8dct=1 / cqm=0 / deadzone=21,11 / fast_pskip=0 / chroma_qp_offset=-3 / threads=6 / sliced_threads=0 / nr=0 / decimate=1 / interlaced=0 / constrained_intra=0 / bframes=3 / b_pyramid=2 / b_adapt=2 / b_bias=0 / direct=3 / weightb=1 / weightp=2 / keyint=250 / keyint_min=25 / scenecut=40 / intra_refresh=0 / rc_lookahead=40 / rc=2pass / mbtree=1 / bitrate=5980 / ratetol=1.0 / qcomp=0.60 / qpmin=10 / qpmax=51 / qpstep=4 / cplxblur=20.0 / qblur=0.5 / ip_ratio=1.40 / aq=1:1.00
    Language                    : English
    Default                     : Yes
    Forced                      : No
    
    Audio #1
    ID                          : 2
    Format                      : AC-3
    Format/Info                 : Audio Coding 3
    Mode extension              : CM (complete main)
    Format settings, Endianness : Big
    Codec ID                    : A_AC3
    Duration                    : 44mn 58s
    Bit rate mode               : Constant
    Bit rate                    : 384 Kbps
    Channel(s)                  : 6 channels
    Channel positions           : Front: L C R, Side: L R, LFE
    Sampling rate               : 48.0 KHz
    Frame rate                  : 31.250 fps (1536 spf)
    Compression mode            : Lossy
    Stream size                 : 124 MiB (6%)
    Language                    : Vietnamese
    Default                     : Yes
    Forced                      : No
    
    Audio #2
    ID                          : 3
    Format                      : AC-3
    Format/Info                 : Audio Coding 3
    Mode extension              : CM (complete main)
    Format settings, Endianness : Big
    Codec ID                    : A_AC3
    Duration                    : 44mn 59s
    Bit rate mode               : Constant
    Bit rate                    : 192 Kbps
    Channel(s)                  : 2 channels
    Channel positions           : Front: L R
    Sampling rate               : 48.0 KHz
    Frame rate                  : 31.250 fps (1536 spf)
    Compression mode            : Lossy
    Stream size                 : 61.8 MiB (3%)
    Language                    : Russian
    Default                     : No
    Forced                      : No

    The Zambezi

    Synopsis: Deep in the heart of Africa the Zambezi is one of the great rivers of the world, yet apart from the Victoria Falls most of it is unknown. THE ZAMBEZI tells us in two parts the full story of its journey and the life that the river controls from the source in Zambia to the delta in Mozambique.

    The Zambezi - E01 Source of Life :

    "Zambezi - Source of Life" is the first part of this visually stunning two part series that follows the river from its headwaters to the thundering power of the Victoria Falls. As the river ebbs and flows with the season, the Zambezi dominates the life of both the wild animals and the human cultures that depend upon its waters. This is the story of the river through the times of rain and plenty to the dry months when its waters are the only source of life.


    The Zambezi - E02 A River Untamed :

    The second part "Zambezi - A River Untamed" follows the river from below the Victoria Falls to where it meanders through its delta in Mozambique. At the height of the dry season, where the Luangwa river joins the Zambezi thousands of hippos crowd together in one remaining channel. Finally the Zambezi gently flows into the Indian Ocean, but the story of the river mirrors the story of life itself. It is the story of Africa.



    Screenshot

    [​IMG]

    Download

    Fshare.vn







     
  16. wkjnguyen

    wkjnguyen Well-Known Member

    Tham gia ngày:
    7/10/11
    Bài viết:
    663
    Đã được cảm ơn:
    1,304
    Ðề: [Update New Episode 11/12/15] Phim Tài Liệu Thế Giới Động Vật Và Thiên Nhiên Hoang Dã Thuyết Minh

    e không còn giữ nữa! Bác qua link bên dưới, ấn tải xuống nếu trình duyệt báo lỗi bảo mật thì bác cứ tiếp tục truy cập, IDM nó tự động bắt link :)
    Mã:
    http://pan.baidu.com/pcloud/album/info?uk=1141622238&album_id=7416521619519866811
     
  17. hoang_thuy

    hoang_thuy Huyền Thoại

    Tham gia ngày:
    10/6/09
    Bài viết:
    2,133
    Đã được cảm ơn:
    5,110
    Ðề: [Update New Episode 11/12/15] Phim Tài Liệu Thế Giới Động Vật Và Thiên Nhiên Hoang Dã Thuyết Minh

    Iscol có cho mình link panbaidu nhưng anh này hơi khó down, down đến 90% thì dừng hẳn, cho resume thì đòi account, nhập xong thì không chấp nhận password. Thôi để mai mình thức lúc 3 - 4 giờ sáng, "trời yên mây tạnh" chắc được ( đã down Mutant Planet một lần rồi, toàn thành công vào sáng sớm). Thank iscol và wkjnguyen.
     
  18. wkjnguyen

    wkjnguyen Well-Known Member

    Tham gia ngày:
    7/10/11
    Bài viết:
    663
    Đã được cảm ơn:
    1,304
    Ðề: [Update New Episode 11/12/15] Phim Tài Liệu Thế Giới Động Vật Và Thiên Nhiên Hoang Dã Thuyết Minh

    Vậy thì bác vào lại link đó tải lại!( mục đích là để nó refresh) Coi như tải 1 bản mới( cứ để bản 90% đó) sau đó khi bản mới bắt đầu tải thì bác dừng lại. Tiếp theo là
    TH1: Bản mới và bản down dở cùng link ----> resume file 90% lúc nãy xem có được không?
    TH2: Bản mới và bản down dở không cùng link ---> Bác vào idm nháy đúp sau đó copy địa chỉ mới ---> Nháy đúp bản cũ paste địa chỉ mới vào ô address sau đó ok rồi resume

    [​IMG]

    P/s: bản 1080i này lần trước e có xem, nói chung không net như mình tưởng, mặc dù khá nặng :D
     
  19. hoang_thuy

    hoang_thuy Huyền Thoại

    Tham gia ngày:
    10/6/09
    Bài viết:
    2,133
    Đã được cảm ơn:
    5,110
    Ðề: [Update New Episode 11/12/15] Phim Tài Liệu Thế Giới Động Vật Và Thiên Nhiên Hoang Dã Thuyết Minh

    Mình chưa biết cách này để mai áp dụng thử xem. Thanks.
     
  20. iscol

    iscol Well-Known Member

    Tham gia ngày:
    1/9/09
    Bài viết:
    4,551
    Đã được cảm ơn:
    9,739
    Giới tính:
    Nam
    Nghề nghiệp:
    Computer
    Nơi ở:
    Việt Nam
    Ðề: [Update New Episode 11/12/15] Phim Tài Liệu Thế Giới Động Vật Và Thiên Nhiên Hoang Dã Thuyết Minh

    [​IMG]
    National Geographic Wild Kingdom Of The Apes 720p HDTV x264 AC3 ViE
    Thuyết minh: SCTV Channel
    Media Info
    Mã:
    Format                      : Matroska
    Format version              : Version 4 / Version 2
    File size                   : 1.46 GiB
    Duration                    : 43mn 58s
    Overall bit rate            : 4 763 Kbps
    Encoded date                : UTC 2015-12-15 18:25:21
    Writing application         : mkvmerge v8.6.1 ('Flying') 32bit
    Writing library             : libebml v1.3.3 + libmatroska v1.4.4
    
    Video
    ID                          : 1
    Format                      : AVC
    Format/Info                 : Advanced Video Codec
    Format profile              : High@L4.1
    Format settings, CABAC      : Yes
    Format settings, ReFrames   : 8 frames
    Codec ID                    : V_MPEG4/ISO/AVC
    Duration                    : 43mn 58s
    Bit rate                    : 3 993 Kbps
    Width                       : 1 280 pixels
    Height                      : 720 pixels
    Display aspect ratio        : 16:9
    Frame rate mode             : Constant
    Frame rate                  : 25.000 fps
    Color space                 : YUV
    Chroma subsampling          : 4:2:0
    Bit depth                   : 8 bits
    Scan type                   : Progressive
    Bits/(Pixel*Frame)          : 0.173
    Stream size                 : 1.23 GiB (84%)
    Writing library             : x264 core 142 r2479 dd79a61
    Encoding settings           : cabac=1 / ref=8 / deblock=1:-2:-2 / analyse=0x3:0x133 / me=umh / subme=9 / psy=1 / psy_rd=1.00:0.00 / mixed_ref=1 / me_range=16 / chroma_me=1 / trellis=2 / 8x8dct=1 / cqm=0 / deadzone=21,11 / fast_pskip=1 / chroma_qp_offset=-2 / threads=12 / lookahead_threads=1 / sliced_threads=0 / nr=0 / decimate=1 / interlaced=0 / bluray_compat=0 / constrained_intra=0 / bframes=3 / b_pyramid=2 / b_adapt=2 / b_bias=0 / direct=3 / weightb=1 / open_gop=0 / weightp=2 / keyint=250 / keyint_min=25 / scenecut=40 / intra_refresh=0 / rc_lookahead=60 / rc=crf / mbtree=1 / crf=20.0 / qcomp=0.60 / qpmin=0 / qpmax=69 / qpstep=4 / ip_ratio=1.40 / aq=1:1.00
    Language                    : English
    Default                     : Yes
    Forced                      : No
    
    Audio #1
    ID                          : 2
    Format                      : AC-3
    Format/Info                 : Audio Coding 3
    Mode extension              : CM (complete main)
    Format settings, Endianness : Big
    Codec ID                    : A_AC3
    Duration                    : 43mn 58s
    Bit rate mode               : Constant
    Bit rate                    : 384 Kbps
    Channel(s)                  : 6 channels
    Channel positions           : Front: L C R, Side: L R, LFE
    Sampling rate               : 48.0 KHz
    Frame rate                  : 31.250 fps (1536 spf)
    Compression mode            : Lossy
    Stream size                 : 121 MiB (8%)
    Language                    : Vietnamese
    Default                     : Yes
    Forced                      : No
    
    Audio #2
    ID                          : 3
    Format                      : AC-3
    Format/Info                 : Audio Coding 3
    Mode extension              : CM (complete main)
    Format settings, Endianness : Big
    Codec ID                    : A_AC3
    Duration                    : 43mn 58s
    Bit rate mode               : Constant
    Bit rate                    : 384 Kbps
    Channel(s)                  : 6 channels
    Channel positions           : Front: L C R, Side: L R, LFE
    Sampling rate               : 48.0 KHz
    Frame rate                  : 31.250 fps (1536 spf)
    Compression mode            : Lossy
    Stream size                 : 121 MiB (8%)
    Title                       : English
    Default                     : No
    Forced                      : No
    
    Kingdom of the Apes

    The great apes are fascinating and intelligent animals that share many qualities with humans, and now with the astounding research provided by primatologist Jane Goodall, we explore deeper into the complex species to reveal their culture and personality. Kingdom of the Apes, features the life stories of some of the best known great apes that have ever lived. Goodall began her work with these kingdoms more than 50 years ago, revealing some of the most dramatic and revealing events within our natural history. In the disappearing jungles of Africa, our closest cousins are living out dramas that are totally epic and eerily familiar. Through these great ape life histories, we witness some of the most classic studies of an individuals' struggle for power, great wars that wage within and among societies, and even complex social strategies at play, blurring the line between what is ape and what is human.


    Episode Guide:
    Clash of Kings

    A giant silverback gorilla king named Titus caresses his infant. But he is no gentle giant. This 400 pound ruler has massive strength and a powerful chest. Wise and powerful, the silverback sovereign commands by his sheer presence, and it's his job to maintain order in his clan. Yet rivalry is erupting in his own kingdom. Soon, he may be reaching the end of his reign. What would happen if he were deposed? His own son, Rano, is out to take his father's place as king. Will he succeed?


    Brother Against Brother (Brother vs. Brother)

    In a secret kingdom, conflict divides a family. Brother fights brother with politics and scheming for the throne. Freud, the leader, is in his prime ' extremely smart and in control. But already, there is dissent within the ranks. His brother Frodo, the biggest chimp in the group, has become his rival. We watch as Frodo and Freud battle it out for the ultimate prize: control of their chimp kingdom.


    Screenshot

    [​IMG]

    Download

    Fshare.vn













     

Chia sẻ trang này