Về remux phim gốc có dolby vision dưới container .mkv sẽ làm mất dolby vision

Thảo luận trong 'HD cho người mới bắt đầu' bắt đầu bởi qazwsxrfvtgb, 9/10/19.

  1. qazwsxrfvtgb

    qazwsxrfvtgb Uploader

    Tham gia ngày:
    26/5/18
    Bài viết:
    378
    Đã được cảm ơn:
    7,930
    Điểm thành tích:
    93
    Tiền:
    454 CR
    Trước tiên bàn về định nghĩa Remux

    Tạm lấy

    "
    A remux is a rip of a Blu-ray or HD DVD disc to another container format or just stripping the disc of menus and bonus material while keeping the contents of its audio and video streams intact (also keeping the current codecs), guaranteeing the exact 1:1 movie quality as on original disc.
    "

    tức là remux giữ nguyên chất lượng video và audio, không thay đổi chất lượng như từ đĩa gốc


    Dolby Vision là gì
    tạm lấy từ đây

    "
    Dolby Vision là sự bổ sung các siêu dữ liệu vào khả năng hiển thị vốn có của HDR. Do do đó, nó cho phép hình ảnh sống động hơn và có chiều sâu hơn so với HDR. Ở một khía cạnh khác, HDR cũng có một phiên bản khác đó là HDR 10+ là một đối thủ của Dolby Vision. Và nhờ các siêu dữ liệu mà Dolby vision chiếm ưu thế trước HDR 10+.

    "

    Nếu tải phim iso 4k nguyên gốc, sẽ thấy dolby vision dưới dạng một track 1080p riêng, tạm lấy bdinfo từ Godzilla 2019


    Disc Title: Godzilla.King.of.the.Monsters.2019.UHD.BluRay.2160p.HEVC.Atmos.TrueHD7.1-MTeam
    Disc Size: 68,882,895,956 bytes
    Protection: AACS2
    Extras: Ultra HD, BD-Java
    BDInfo: 0.7.5.3 (compatible layout created by DVDFab 11.0.1.4)

    VIDEO:

    Codec Bitrate Description
    ----- ------- -----------
    MPEG-H HEVC Video 56422 kbps 2160p / 23.976 fps / 16:9 / Main 10 @ Level 5.1 @ High / 4:2:0 / 10 bits / HDR10+ / BT.2020 /
    * MPEG-H HEVC Video 2092 kbps 1080p / 23.976 fps / 16:9 / Main 10 @ Level 5.1 @ High / 4:2:0 / 10 bits / Dolby Vision / BT.2020 /




    (Nếu dùng mpc-hc hay bất kì software nào tương đương, khi chọn play track này, sẽ thấy các chấm màu lộn xộn khắp màn hình, nhưng điều đó không quan trọng)


    Nguyên tắc tv có hỗ trợ dolby vision là nếu coi file .m2ts này, tv sẽ play cùng lúc 2 file 2160p và 1080p này, có thể hiểu như track 1080p chính là một lớp đè lên để bổ sung hiển thị cho lớp 2160p phía sau

    Vấn đề chính khi remux các phim có dolby vision dưới container .mkv, thì khi coi trên tv có hỗ trợ dolby vision, lớp này sẽ không hiển thị (ít nhất là theo hiểu biết của mình là thế), tức là việc đưa track 1080p này vào container mkv là một điều vô nghĩa, nên những người remux sẽ không làm. Điều này đồng nghĩa chất lượng hình ảnh sẽ giảm

    Nhưng khi release các bản phim "remux" từ phim gốc có dolby vision dưới container .mkv, các tracker vẫn để tên remux trong tiêu đề phim, trong khi rõ ràng là việc này làm giảm chất lượng hình ảnh.

    Chính vì vậy, hiện một tracker private khá nổi (Beyondhd chuyên release phim nguyên gốc dưới tên Beyondhd và remux với tên FraMeSToR ) đã remux lại các phim có dolby vision dưới container . mp4, lúc này thì dolby vision sẽ hiển thị được trên các tv có hỗ trợ dolby vision.

    [​IMG]
    [​IMG]

    Tất nhiên, container .mp4 có nhược điểm ....
    Mã:
    Audio is lossy since Dolby Vision & TrueHD cannot be merged together in .mp4 containers, so this remux has:
    - Untouched BluRay video quality
    - AC-3 5.1 Audio
    - No subtitles
    This will direct play in LG OLED TVs with Plex / Xplay. I tested it with an LG OLED 65 C7.
    
    .... đó là không có âm thanh TrueHD

    So sánh Dolby Vision và HDR

    [​IMG]



    Nguồn tham khảo:
    https://www.reddit.com/r/Piracy/comments/acj5q4/dolby_vision_remux/
    https://www.makemkv.com/forum/viewtopic.php?t=18602
     
    Chỉnh sửa cuối: 9/10/19
    vOzer_X, liemvn2212 and Anh YAM like this.
  2. liemvn2212

    liemvn2212 Well-Known Member

    Tham gia ngày:
    8/6/09
    Bài viết:
    816
    Đã được cảm ơn:
    31,536
    Điểm thành tích:
    93
    Giới tính:
    Nam
    Nghề nghiệp:
    IT Apprentice
    Nơi ở:
    Sài Gòn
    Tiền:
    1,150 CR
    Lấy ví dụ phim Godzilla trên thì TV không play dc track DoVi sẽ play HDR hả chú qaz? Có phải phim có DoVi sẽ luôn có HDR?
     
  3. qazwsxrfvtgb

    qazwsxrfvtgb Uploader

    Tham gia ngày:
    26/5/18
    Bài viết:
    378
    Đã được cảm ơn:
    7,930
    Điểm thành tích:
    93
    Tiền:
    454 CR
    Nếu nó không play được track dolby vision, thì vẫn play track 2160 có hdr 10 hoặc hdr 10+, vẫn đẹp như bình thường, nhưng không thể đẹp như dolby vision. Vì chuẩn dolbyvision phải trả tiền mới được đưa lên đĩa, nên chắc chắn phim có dolby vision luôn có hdr để phục vụ nhóm người chưa có tv hỗ trợ dovi.
    Nhiều tv còn không hỗ trợ hdr 10+, chỉ mới hỗ trợ hdr 10.
     
    Chỉnh sửa cuối: 10/10/19
    liemvn2212 cảm ơn bài này.
  4. caothudeche

    caothudeche Moderator

    Tham gia ngày:
    24/1/10
    Bài viết:
    2,747
    Đã được cảm ơn:
    1,115
    Điểm thành tích:
    113
    Tiền:
    2,882 CR
    Có nhiều thứ không phải lúc nào cũng nhét được xuống các container gọn nhẹ như MKV, ví dụ như trước là 3D. Đã đưa xuống MKV là phải rip về các chuẩn 3D khác như O-U, SBS...
    Dobly Vision và HDR nó kiểu như DTS-HD & DTS-HD MA, nó đẻ ra thêm track video như vậy để có khả năng tương thích ngược trên nhiều hệ thống, thiết bị. Nhưng chắc không khó như 3D, sớm muộn thì nó cũng remux được dưới container MKV và các thiết bị vẫn giải mã được thôi.
     
  5. Taiphan000

    Taiphan000 New Member

    Tham gia ngày:
    22/8/18
    Bài viết:
    17
    Đã được cảm ơn:
    2
    Điểm thành tích:
    3
    Giới tính:
    Nam
    Tiền:
    17 CR
    thanks
     
  6. liemvn2212

    liemvn2212 Well-Known Member

    Tham gia ngày:
    8/6/09
    Bài viết:
    816
    Đã được cảm ơn:
    31,536
    Điểm thành tích:
    93
    Giới tính:
    Nam
    Nghề nghiệp:
    IT Apprentice
    Nơi ở:
    Sài Gòn
    Tiền:
    1,150 CR
    Như này là chuẩn phải không chú @qazwsxrfvtgb
    Mã:
    General
    Complete name                            : Justice League 2017 UHD Dolby Vision MP4 DD+5.1 Multi H265-d3g.mp4
    Format                                   : MPEG-4
    Format profile                           : Base Media / Version 2
    Codec ID                                 : mp42 (mp42/isom/hev1/dby1)
    File size                                : 43.9 GiB
    Duration                                 : 2 h 0 min
    Overall bit rate                         : 52.4 Mb/s
    Encoded date                             : UTC 2019-09-17 19:25:50
    Tagged date                              : UTC 2019-09-17 19:33:27
    Writing application                      : DVDFab 11.0.5.0
    Cover                                    : Yes
    Title/Sort                               : Justice League
    LongDescription                          : Fuelled by his restored faith in humanity and inspired by Superman's selfless act, Bruce Wayne and Diana Prince assemble a team of metahumans consisting of Barry Allen, Arthur Curry and Victor Stone to face the catastrophic threat of Steppenwolf and the Parademons who are on the hunt for three Mother Boxes on Earth.
    
    Video #1
    ID                                       : 1
    Format                                   : HEVC
    Format/Info                              : High Efficiency Video Coding
    Format profile                           : Main 10@L5.1@High
    HDR format                               : SMPTE ST 2086, HDR10 compatible
    Codec ID                                 : hev1
    Codec ID/Info                            : High Efficiency Video Coding
    Duration                                 : 2 h 0 min
    Bit rate                                 : 51.6 Mb/s
    Width                                    : 3 840 pixels
    Height                                   : 2 160 pixels
    Display aspect ratio                     : 16:9
    Frame rate mode                          : Constant
    Frame rate                               : 23.976 (24000/1001) FPS
    Color space                              : YUV
    Chroma subsampling                       : 4:2:0 (Type 2)
    Bit depth                                : 10 bits
    Bits/(Pixel*Frame)                       : 0.260
    Stream size                              : 43.3 GiB (99%)
    Encoded date                             : UTC 2019-09-17 19:25:50
    Tagged date                              : UTC 2019-09-17 19:33:21
    Color range                              : Limited
    Color primaries                          : BT.2020
    Transfer characteristics                 : PQ
    Matrix coefficients                      : BT.2020 non-constant
    Mastering display color primaries        : Display P3
    Mastering display luminance              : min: 0.0050 cd/m2, max: 4000 cd/m2
    Maximum Content Light Level              : 1016 cd/m2
    Maximum Frame-Average Light Level        : 342 cd/m2
    Codec configuration box                  : hvcC
    
    Video #2
    ID                                       : 2
    Format                                   : HEVC
    Format/Info                              : High Efficiency Video Coding
    Format profile                           : Main 10@L5.1@High
    HDR format                               : Dolby Vision, Version 1.0, dvhe.07.06, EL+RPU / SMPTE ST 2086, HDR10 compatible
    Codec ID                                 : dvhe
    Codec ID/Info                            : High Efficiency Video Coding with Dolby Vision
    Duration                                 : 2 h 0 min
    Bit rate                                 : 66.6 kb/s
    Width                                    : 1 920 pixels
    Height                                   : 1 080 pixels
    Display aspect ratio                     : 16:9
    Frame rate mode                          : Constant
    Frame rate                               : 23.976 (24000/1001) FPS
    Color space                              : YUV
    Chroma subsampling                       : 4:2:0 (Type 2)
    Bit depth                                : 10 bits
    Bits/(Pixel*Frame)                       : 0.001
    Stream size                              : 57.2 MiB (0%)
    Encoded date                             : UTC 2019-09-17 19:25:50
    Tagged date                              : UTC 2019-09-17 19:33:21
    Color range                              : Limited
    Color primaries                          : BT.2020
    Transfer characteristics                 : PQ
    Matrix coefficients                      : BT.2020 non-constant
    Mastering display color primaries        : Display P3
    Mastering display luminance              : min: 0.0050 cd/m2, max: 4000 cd/m2
    Codec configuration box                  : hvcC+dvcC
    
    Audio
    ID                                       : 3
    Format                                   : E-AC-3
    Format/Info                              : Enhanced AC-3
    Commercial name                          : Dolby Digital Plus
    Codec ID                                 : ac-3
    Duration                                 : 2 h 0 min
    Bit rate mode                            : Constant
    Bit rate                                 : 640 kb/s
    Channel(s)                               : 6 channels
    Channel layout                           : L R C LFE Ls Rs
    Sampling rate                            : 48.0 kHz
    Frame rate                               : 31.250 FPS (1536 SPF)
    Bit depth                                : 16 bits
    Compression mode                         : Lossy
    Stream size                              : 550 MiB (1%)
    Title                                    : English (eac3 5.1)
    Language                                 : English
    Service kind                             : Complete Main
    Default                                  : Yes
    Alternate group                          : 1
    Encoded date                             : UTC 2019-09-17 19:25:50
    Tagged date                              : UTC 2019-09-17 19:33:22
     
  7. qazwsxrfvtgb

    qazwsxrfvtgb Uploader

    Tham gia ngày:
    26/5/18
    Bài viết:
    378
    Đã được cảm ơn:
    7,930
    Điểm thành tích:
    93
    Tiền:
    454 CR
    theo em nghĩ là chuẩn
    tại xét theo thông tin video #2


    còn đĩa gốc thông tin video như sau

    Disc Title: JUSTICE_LEAGUE
    Disc Size: 65,484,748,800 bytes
    Protection: AACS2
    BD-Java: Yes
    Playlist: 00800.MPLS
    Size: 62,070,792,192 bytes
    Length: 2:00:02.570
    Total Bitrate: 68.94 Mbps
    Video: MPEG-H HEVC Video / 51650 kbps / 2160p / 23.976 fps / 16:9 / Main 10 Profile 5.1 High / 4:2:0 / 10 bits / HDR / BT.2020 /
    Video: * MPEG-H HEVC Video / 67 kbps / 1080p / 23.976 fps / 16:9 / Main 10 Profile 5.1 High / 4:2:0 / 10 bits / Dolby Vision / BT.2020 /
     
    liemvn2212 cảm ơn bài này.
  8. Ozk

    Ozk New Member

    Tham gia ngày:
    11/10/19
    Bài viết:
    20
    Đã được cảm ơn:
    5
    Điểm thành tích:
    3
    Giới tính:
    Nam
    Tiền:
    20 CR
    DV xịn xò nhưng chưa có điều kiện để trải nghiệm
     
    #8 +1 CR
  9. buonvn

    buonvn New Member

    Tham gia ngày:
    15/8/10
    Bài viết:
    23
    Đã được cảm ơn:
    4
    Điểm thành tích:
    3
    Tiền:
    51 CR
    Chẹp chẹp dolby vision mơ ước
     

Chia sẻ trang này