[ Võ Thuật | 1 link ] Dynamite Warrior 2006 720p HDTV DD5.1 x264-NGB - TRUY TÌM TƯỢNG PHẬT

Thảo luận trong 'Fshare.vn' bắt đầu bởi xemaydinh, 12/2/14.

  1. xemaydinh

    xemaydinh Tem

    Tham gia ngày:
    3/7/10
    Bài viết:
    29,299
    Đã được cảm ơn:
    102,721
    Điểm thành tích:
    113
    Tiền:
    19,091 CR
    Dynamite Warrior 2006 720p HDTV DD5.1 x264-NGB
    Chiến Binh Vòng Lửa



    [​IMG]

    [​IMG]





    Mã:
    General
    Unique ID                                : 235283290651179114455969345210090273354 (0xB101E9DA57EE63BBA91779E4E1243A4A)
    Complete name                            : E:\Phim\Khon Fai Bin 2006 HDTV 720p x264-NGB\khon fai bin HDTV 720p x264-NGB.mkv
    Format                                   : Matroska
    Format version                           : Version 2
    File size                                : 4.37 GiB
    Duration                                 : 1h 37mn
    Overall bit rate                         : 6 419 Kbps
    Encoded date                             : UTC 2011-08-07 13:30:04
    Writing application                      : mkvmerge v4.8.0 ('I Got The...') built on May 24 2011 03:12:58
    
    
    Writing library                          : libebml v1.2.0 + libmatroska v1.1.0
    Video
    ID                                       : 1
    Format                                   : AVC
    Format/Info                              : Advanced Video Codec
    Format profile                           : High@L4.1
    Format settings, CABAC                   : Yes
    Format settings, ReFrames                : 9 frames
    Codec ID                                 : V_MPEG4/ISO/AVC
    Duration                                 : 1h 37mn
    Bit rate                                 : 6 039 Kbps
    Width                                    : 1 280 pixels
    Height                                   : 720 pixels
    Display aspect ratio                     : 16:9
    Frame rate mode                          : Constant
    Frame rate                               : 25.000 fps
    Color space                              : YUV
    Chroma subsampling                       : 4:2:0
    Bit depth                                : 8 bits
    Scan type                                : Progressive
    Bits/(Pixel*Frame)                       : 0.262
    Stream size                              : 4.02 GiB (92%)
    Writing library                          : x264 core 115 r1995 c1e60b9
    Encoding settings                        : cabac=1 / ref=9 / deblock=1:-3:-3 / analyse=0x3:0x113 / me=umh / subme=7 / psy=1 / psy_rd=1.00:0.00 / mixed_ref=1 / me_range=16 / chroma_me=1 / trellis=1 / 8x8dct=1 / cqm=0 / deadzone=21,11 / fast_pskip=1 / chroma_qp_offset=-2 / threads=6 / sliced_threads=0 / nr=0 / decimate=1 / interlaced=0 / bluray_compat=0 / constrained_intra=0 / bframes=3 / b_pyramid=2 / b_adapt=1 / b_bias=0 / direct=1 / weightb=1 / open_gop=0 / weightp=2 / keyint=250 / keyint_min=25 / scenecut=40 / intra_refresh=0 / rc_lookahead=40 / rc=2pass / mbtree=1 / bitrate=6039 / ratetol=1.0 / qcomp=0.60 / qpmin=0 / qpmax=69 / qpstep=4 / cplxblur=20.0 / qblur=0.5 / ip_ratio=1.40 / aq=1:1.00
    Default                                  : Yes
    Forced                                   : No
    Audio
    ID                                       : 2
    Format                                   : AC-3
    Format/Info                              : Audio Coding 3
    Mode extension                           : CM (complete main)
    Format settings, Endianness              : Big
    Codec ID                                 : A_AC3
    Duration                                 : 1h 37mn
    Bit rate mode                            : Constant
    Bit rate                                 : 384 Kbps
    Channel(s)                               : 6 channels
    Channel positions                        : Front: L C R, Side: L R, LFE
    Sampling rate                            : 48.0 KHz
    Bit depth                                : 16 bits
    Compression mode                         : Lossy
    Stream size                              : 268 MiB (6%)
    Default                                  : Yes
    Forced                                   : No


    [​IMG]


    [​IMG] [​IMG] [​IMG] [​IMG] [​IMG] [​IMG]

    [​IMG]


    [video=youtube;r01IVFEpQMg]https://www.youtube.com/watch?v=r01IVFEpQMg[/video]






    1 link Fshare ~4.36GB


    Nhấn nút Cảm ơn (dưới chân bài) để thấy link!






    Sub Việt(đã sync)




    [​IMG] [​IMG] [​IMG]







    D/S phim hay duoc chon loc
     
    Chỉnh sửa cuối: 12/2/14
    thanhtung90, fsvnhd, Typn189 and 4 others like this.
  2. xemaydinh

    xemaydinh Tem

    Tham gia ngày:
    3/7/10
    Bài viết:
    29,299
    Đã được cảm ơn:
    102,721
    Điểm thành tích:
    113
    Tiền:
    19,091 CR
  3. lackienbinh

    lackienbinh Well-Known Member

    Tham gia ngày:
    27/10/11
    Bài viết:
    986
    Đã được cảm ơn:
    77
    Điểm thành tích:
    48
    Nghề nghiệp:
    Engineer
    Nơi ở:
    TP.HCM, Việt Nam
    Tiền:
    3,900 CR
    Ðề: [ Võ Thuật | 1 link ] Dynamite Warrior 2006 720p HDTV DD5.1 x264-NGB - TRUY TÌM TƯỢNG PHẬT

    Phim này còn gọi là "Chiến Binh Vòng Lửa" nè!
     
  4. xemaydinh

    xemaydinh Tem

    Tham gia ngày:
    3/7/10
    Bài viết:
    29,299
    Đã được cảm ơn:
    102,721
    Điểm thành tích:
    113
    Tiền:
    19,091 CR
    Ðề: [ Võ Thuật | 1 link ] Dynamite Warrior 2006 720p HDTV DD5.1 x264-NGB - TRUY TÌM TƯỢNG PHẬT


    Đã sửa theo ý bạn :D
     
  5. lackienbinh

    lackienbinh Well-Known Member

    Tham gia ngày:
    27/10/11
    Bài viết:
    986
    Đã được cảm ơn:
    77
    Điểm thành tích:
    48
    Nghề nghiệp:
    Engineer
    Nơi ở:
    TP.HCM, Việt Nam
    Tiền:
    3,900 CR
    Ðề: [ Võ Thuật | 1 link ] Dynamite Warrior 2006 720p HDTV DD5.1 x264-NGB - TRUY TÌM TƯỢNG PHẬT

    Phim này coi cũng khá hay, tiếc là chưa tìm ra được bản BluRay! :D
     
  6. lanem

    lanem Member

    Tham gia ngày:
    9/2/10
    Bài viết:
    862
    Đã được cảm ơn:
    17
    Điểm thành tích:
    18
    Nơi ở:
    Hà Nội
    Tiền:
    1,351 CR
    Ðề: [ Võ Thuật | 1 link ] Dynamite Warrior 2006 720p HDTV DD5.1 x264-NGB - TRUY TÌM TƯỢNG PHẬT

    giá bác chủ có DTS nữa thì thích nhỉ :D
     
  7. xemaydinh

    xemaydinh Tem

    Tham gia ngày:
    3/7/10
    Bài viết:
    29,299
    Đã được cảm ơn:
    102,721
    Điểm thành tích:
    113
    Tiền:
    19,091 CR
    Ðề: [ Võ Thuật | 1 link ] Dynamite Warrior 2006 720p HDTV DD5.1 x264-NGB - TRUY TÌM TƯỢNG PHẬT

    Lúc nào có sẽ úp cho bác :D
     
  8. randychi

    randychi Member

    Tham gia ngày:
    18/7/11
    Bài viết:
    152
    Đã được cảm ơn:
    6
    Điểm thành tích:
    18
    Tiền:
    405 CR
    Ðề: [ Võ Thuật | 1 link ] Dynamite Warrior 2006 720p HDTV DD5.1 x264-NGB - TRUY TÌM TƯỢNG PHẬT

    Bài hát trong phim này quá hay luôn.
     

Chia sẻ trang này