Vo thuật| Bi kịch||Đoạn tràng kiếm: Trail.of.the.Broken.Blade.1967.720p.x264.AC3.NPW.

Thảo luận trong 'Fshare.vn' bắt đầu bởi HLIEU, 21/5/17.

  1. HLIEU

    HLIEU Well-Known Member

    Tham gia ngày:
    12/2/09
    Bài viết:
    323
    Đã được cảm ơn:
    14,260
    Điểm thành tích:
    113
    Giới tính:
    Nam
    Nghề nghiệp:
    Bác sị Y Khoa chuyên Nội khoa
    Nơi ở:
    Việt Nam
    Tiền:
    1,737 CR
    Đoạn tràng kiếm: Trail.of.the.Broken.Blade.1967.720p.x264.AC3.NPW

    ( Vương Vũ, Tần Bình, Trần Hồng Liệt=10.5GB, 5.35GB

    [​IMG]
    [​IMG]

    Đây là một phim thuộc loại hành động,phiêu lưu, ly kỳ , hấp dẫn do các tài tử Hồng Kông như Vương Vũ, Tần Bình, Trần Hồng Liệt

    Một hiệp sĩ quý tộc trẻ Lý Nhạc từ bỏ người phụ nữ mà anh ta yêu thích sau khi đi ám sát một tể tướng đã kết tội sai và cho giết cha mình. Sau khi báo thù, anh phải sống ẩn danh như một người giữ ngựa thấp hènrong một quán rượu. Sau này, anh đã quen với Phuơng đại hiệp người đi tìm Lý nhạc cho Lưu tiểu thư người từng đính hôn với anh. Trong lúc Phương gia đụng độvới bọn Phi ngư đảo, đã ra tay hạ hết dám này cả tử Quỷ. Tiểu My con chủ quán dra đi tìm Lưu tiểu thư, họ gặp lại nhau và Tiểu My dẫn cô về gặp Phương Giaa và Lý nhạc.Sợ lô thân phận anh tìm đến Phi Ngư đảo giết bọn xấu xa.


    Phương gia, Lưu tiểu thư cũng theo giúp anh đánh bọ xấu ở Phi Ngư đảo. Anh hạ hết Tứ quỷ cả Thiếu gia nhưng cuối bị đoạn tràng kiếm đảp chủ đâo chém anh nhát trí mạng.

    Anh trối trăngg với Lưu tiểu thư nối lại tình mới với Phương gia nhưng nàng cũng tự vẫn đến đến với anh trong cái chếtt cho trọn tình.


    Phim này ngoài hình ảnh đẹp, rõ ,cốt truyện thật gây cấn, rất xứng đáng lưu mãi trong số các phim kinh điển hay nhất mọi thời đại; chắc rồi đây bạn sẽ còn muốn xem xem lại nhiều lần nữa.

    . Sub Việt này được chỉnh lại tona bộ bởi HLIEU vì có nhiều chô dịch sai,lệnh time qua nhiều chỗ rất nặng được tích hợp luôn vào phim không để riêng. Dù sao, file srt này không phải hard code nên bạn có thể tách dễ dàng bằng cách dùng MkvextractGUI.exe trong MKV toolnix.

    Hy vọng được các bạn mê say bộ phim hấp dẫn này sẽ cho nhiều comment(mỗi ngày /chỉ cần 1 người) và bài khỏi bị trôi đi đâu mất tiêu, giúp các bạn nào biết trể còn tìm ra được phim này. Nhớ là bạn a like chỉ tải phim chưa đủ đâu, mà xin nhớ please comment giùm tác giả khi thấy phim nào quá hay để còn giúp bạn bè khác nữa có cơ hội xem được phim hay như mình Killer.Army.1980.480p.480p p dành cho các bạn xem được phụ đề tiếng Anh



    [​IMG]
    6.5/10
    trên 79người xem​


    [​IMG]


    [FONT=Võ thuật, Nbi kịch]

    Thể loại: Hành động,Tình cảm

    Đạo diễn Trương Triệt,

    Sản xuất: năm 1967

    Hãng phim Shaw Brothers

    Diễn Viên chính:

    Vương Vũ vai Vi Phong

    Tần Bình vai Lưu Tiểu thư

    Kiều Trang vai Phương Triệu Quân

    Tiêu Giao vai Tiểu My

    Trần Hồng Liệt Vai Đồ Long

    Diền Phong vai Đảo Chủ


    [​IMG]



    a) General- Video 1080p

    File size : 10.5 GiB

    Duration : 1 h 44 min

    Overall bit rate : 14.4 Mb/s

    Format : AVC

    Codec ID/Info : Advanced Video Coding

    Bit rate : 14.0 Mb/s

    Width : 1 920 pixels

    Height : 1 080 pixels

    Display aspect ratio : 2.40:1

    Bit depth : 8 bits

    Stream size : 10.2 GiB (98%)

    b) Genearl Video 720p

    File size : 5.35 GiB

    Overall bit rate : 7 341 kb/s

    Format : AVC

    Format/Info : Advanced Video Codec

    Bit rate : 7 000 kb/s

    Width : 1 280 pixels

    Height : 720 pixels

    Frame rate mode : Constant

    Frame rate : 23.976 (24000/1001) FPS

    Bit depth : 8 bits

    c)Audio 1080p-720p

    Format : AC-3

    Bit rate : 320 kb/s

    Channel(s) : 6 channels

    Channel positions : Front: L C R, Side: L R, LFE

    Sampling rate : 48.0 kHz

    Frame rate : 31.250 FPS (1536 spf)

    Bit depth : 16 bits

    Compression mode : Lossy

    Stream size : 239 MiB (2%)

    d)-Subtitles: Vietnamese non hard code, [/QUOTE]



    [​IMG]
    The trail 1-2.jpg The trail 3-4.jpg The trail 5-6.jpg The trail 7-8.jpg The trail 9-10.jpg The trail 11-12.jpg The trail 13-14.jpg The trail 15-16.jpg

    [​IMG]

    The trail of the broken blade 1080p

    English sub

    bản 720p

    BONUS 480P.jpg

    Killer.Army.1980.480p

    English sub


    Đã có bản 720p phim này ở mục download fshare, bạn nào thích bản 720p cứ chọn tải link Fshare


    Danh sách các phim 1080p mà HLIEU đã post



    HLIEU
     
    #1 +2 CR
  2. Giaonhu1973

    Giaonhu1973 Member

    Tham gia ngày:
    27/6/13
    Bài viết:
    16
    Đã được cảm ơn:
    37
    Điểm thành tích:
    18
    Tiền:
    74 CR
    Lấu lắm mơi xem được phimkiếm hiệp do Vu7po7ng Vũ đóng.
    Câu chuyện quá ư cảm động. Cám ơn bác HLIEU nhiều
     
  3. 3khai

    3khai Member

    Tham gia ngày:
    12/10/14
    Bài viết:
    36
    Đã được cảm ơn:
    33
    Điểm thành tích:
    18
    Tiền:
    80 CR
    Phim kiếm hiệp SB qua hay, dáng sưu tầm
    cám ơn bác HLIEU
    3khai
     
    #3 +1 CR
  4. quochuy1996

    quochuy1996 Well-Known Member

    Tham gia ngày:
    10/5/10
    Bài viết:
    1,775
    Đã được cảm ơn:
    4,361
    Điểm thành tích:
    113
    Tiền:
    1,389 CR
    Rất mê phim kiếm hiệp do Vương Vũ đóng và SB sản xuất. Cám ơn bác HLIEU rất nhiều
     
  5. HLIEU

    HLIEU Well-Known Member

    Tham gia ngày:
    12/2/09
    Bài viết:
    323
    Đã được cảm ơn:
    14,260
    Điểm thành tích:
    113
    Giới tính:
    Nam
    Nghề nghiệp:
    Bác sị Y Khoa chuyên Nội khoa
    Nơi ở:
    Việt Nam
    Tiền:
    1,737 CR
    Báo cáo các bạn mê phim kinh điển xưa Ngày mái 3152017, sẽ có bo65phimseu kih điển Thế giời đã mất: The.Lost.World.1960.1080p.BluRay.x264-x0r

    (Michael Rennie, Jill St. JohnDavid Hedison, Claude Rains, ))=10.9GB, 6.89GB

    [​IMG] [/IMG]​

    Đây là một phim thuộc loại hành động,phiêu lưu, ly kỳ , hấp dẫn do các tài tử Mỹ như

    Michael Rennie, Jill St. John, David Hedison, Claude Rains

    Giáo sư Challenger (Claude Rains), một nhà sinh vật học nổi tiếng và nhà nhân chủng học, báo cáo cho hiệp hội Sinh vật học London rằng ông đã phát hiện ra mẫu vật còn sống của động vật được cho là đã tuyệt chủng, bao gồm cả khủng long, trên một chuyến thám hiểm tới lưu vực sông Amazon. Khi các đồng nghiệp của ông bác bỏ tuyên bố của ông, ông thách thức của Hiệp hội để gắn kết một chuyến thám hiểm để xác minh câu chuyện của mình.

    Challenger và đồng hành của mình đi du lịch đến một cao nguyên hẻo lánh, nơi họ gặp những sinh vật thời tiền sử và các mối nguy hiểm khác, và khám phá những di sản của một nhà thám hiểm trước đó tiết lộ quá khứ ẩn của một trong những đội bóng của họ. Trong một vụ phun trào núi lửa, họ thoát khỏi cao nguyên mang trứng của một con Tyrannosaurus rex. Trứng nở khi nó vỡ ra, và Giáo sư Challenger quyết định để có những con khủng long bé trở lại London với họ.


    HLIEU
     
    #5 +1 CR
  6. CineLover

    CineLover Member

    Tham gia ngày:
    2/6/17
    Bài viết:
    26
    Đã được cảm ơn:
    28
    Điểm thành tích:
    18
    Giới tính:
    Nam
    Tiền:
    31 CR
    Cám ơn bác.
    Xem phim cũ không khác gì được viếng lại tuổi thơ của mình.
     
    phammanhhung65 cảm ơn bài này.
  7. conghieu1978

    conghieu1978 Moderator

    Tham gia ngày:
    20/5/11
    Bài viết:
    5,998
    Đã được cảm ơn:
    1,268
    Điểm thành tích:
    113
    Giới tính:
    Nam
    Nghề nghiệp:
    Trồng rau sạch
    Nơi ở:
    Quanh co khó tả dễ vào Lầm Thôn
    Tiền:
    416 CR
    Lên
     

Chia sẻ trang này