[Fshare] [Võ Thuật] Once Upon A Time In China 1992 Remastered 1080p.Bluray.Valis - Hoàng Phi Hồng 2 (USLT)

Thảo luận trong 'Phim có audio Việt' bắt đầu bởi tamquocgia94, 16/5/20.

  1. tamquocgia94

    tamquocgia94 Well-Known Member

    Tham gia ngày:
    30/10/17
    Bài viết:
    1,344
    Đã được cảm ơn:
    42,619
    Giới tính:
    Nam
    Nghề nghiệp:
    Osin tổng thống
    Nơi ở:
    Dubai
    Once Upon A Time In China 1992 Remastered 1080p.Bluray.Valis - Hoàng Phi Hồng 2 (USLT)
    (Lý Liên Kiệt, Chân Tử Đan, Quan Chi Lâm, Max Mok)
    Lồng Tiếng + Sub Việt Mux Sẵn
    [​IMG]

    Mã:

    General
    
    	

    Unique ID : 210827675855534016800828504496163083121 (0x9E9BEEF3895FCA7DBC09E6698D1D5371) Complete name : C:\Users\tamquocgia\Downloads\Once.Upon.A.Time.In.China.II.1992.Remastered.1080p.Bluray.x264-Valis.mkv Format : Matroska Format version : Version 4 / Version 2 File size : 11.1 GiB Duration : 1h 53mn Overall bit rate mode : Variable Overall bit rate : 14.0 Mbps Encoded date : UTC 2020-05-15 12:30:27 Writing application : mkvmerge v7.9.0 ('Birds') 32bit Writing library : libebml v1.3.1 + libmatroska v1.4.2 Video ID : 1 Format : AVC Format/Info : Advanced Video Codec Format profile : High@L4.1 Format settings, CABAC : Yes Format settings, ReFrames : 5 frames Codec ID : V_MPEG4/ISO/AVC Duration : 1h 53mn Bit rate : 13.1 Mbps Width : 1 920 pixels Height : 808 pixels Display aspect ratio : 2.40:1 Frame rate mode : Constant Frame rate : 23.976 (24000/1001) fps Color space : YUV Chroma subsampling : 4:2:0 Bit depth : 8 bits Scan type : Progressive Bits/(Pixel*Frame) : 0.351 Stream size : 10.3 GiB (93%) Writing library : x264 core 157 r2935 545de2f Encoding settings : cabac=1 / ref=5 / deblock=1:-3:-3 / analyse=0x3:0x133 / me=umh / subme=11 / psy=1 / psy_rd=1.00:0.00 / mixed_ref=1 / me_range=64 / chroma_me=1 / trellis=2 / 8x8dct=1 / cqm=0 / deadzone=21,11 / fast_pskip=0 / chroma_qp_offset=-2 / threads=9 / lookahead_threads=2 / sliced_threads=0 / nr=0 / decimate=1 / interlaced=0 / bluray_compat=0 / constrained_intra=0 / bframes=12 / b_pyramid=2 / b_adapt=2 / b_bias=0 / direct=3 / weightb=1 / open_gop=0 / weightp=2 / keyint=240 / keyint_min=23 / scenecut=40 / intra_refresh=0 / rc_lookahead=60 / rc=2pass / mbtree=0 / bitrate=13062 / ratetol=1.0 / qcomp=0.60 / qpmin=0 / qpmax=69 / qpstep=4 / cplxblur=20.0 / qblur=0.5 / vbv_maxrate=62500 / vbv_bufsize=78125 / nal_hrd=none / filler=0 / ip_ratio=1.40 / pb_ratio=1.30 / aq=1:0.70 Default : Yes Forced : No Audio #1 ID : 2 Format : AAC Format/Info : Advanced Audio Codec Format profile : LC Codec ID : A_AAC Duration : 1h 53mn Bit rate : 192 Kbps Channel(s) : 2 channels Channel positions : Front: L R Sampling rate : 44.1 KHz Frame rate : 43.066 fps (1024 spf) Compression mode : Lossy Stream size : 154 MiB (1%) Title : Lồng Tiếng - nlong86 by tamquocgia94.HDVN Language : Vietnamese Default : No Forced : No Audio #2 ID : 3 Format : FLAC Format/Info : Free Lossless Audio Codec Codec ID : A_FLAC Duration : 1h 52mn Bit rate mode : Variable Bit rate : 736 Kbps Channel(s) : 2 channels Channel positions : Front: L R Sampling rate : 48.0 KHz Frame rate : 11.719 fps (4096 spf) Bit depth : 24 bits Stream size : 594 MiB (5%) Title : Cantonese Writing library : libFLAC 1.2.1 (UTC 2007-09-17) Language : Chinese Default : Yes Forced : No Text ID : 4 Format : UTF-8 Codec ID : S_TEXT/UTF8 Codec ID/Info : UTF-8 Plain Text Duration : 1h 51mn Bit rate : 56 bps Count of elements : 1008 Stream size : 46.2 KiB (0%) Language : English Default : Yes Forced : No Menu 00:00:00.000 : :Chapter 01 00:08:30.218 : :Chapter 02 00:12:29.624 : :Chapter 03 00:20:21.887 : :Chapter 04 00:28:04.266 : :Chapter 05 00:36:50.542 : :Chapter 06 00:47:08.242 : :Chapter 07 00:52:42.576 : :Chapter 08 00:57:32.824 : :Chapter 09 01:06:53.426 : :Chapter 10 01:19:30.891 : :Chapter 11 01:24:49.501 : :Chapter 12 01:35:11.080 : :Chapter 13 01:49:25.058 : :Chapter 14

    Note: Mình chỉ bỏ thời gian mux lại công lớn của bác hoaitrung và bác nlong86
    Link Tải Phim

    Nhấn nút Cảm ơn (dưới chân bài) để thấy link!
     
    Chỉnh sửa cuối: 22/5/20
  2. Jellkeen

    Jellkeen Well-Known Member

    Tham gia ngày:
    24/2/13
    Bài viết:
    3,014
    Đã được cảm ơn:
    4,590
    Giới tính:
    Nam
    Nghề nghiệp:
    Vô Định
    Nơi ở:
    Vô Gia Cư
    Nếu được hy vọng bạn remux lại luôn những phần còn lại, cảm ơn rất nhiều.
     
    tamquocgia94 cảm ơn bài này.
  3. tamquocgia94

    tamquocgia94 Well-Known Member

    Tham gia ngày:
    30/10/17
    Bài viết:
    1,344
    Đã được cảm ơn:
    42,619
    Giới tính:
    Nam
    Nghề nghiệp:
    Osin tổng thống
    Nơi ở:
    Dubai
    Em không có audio của phần 5 và 6 nếu bác có cho em xin file audio để remux ạ
     
    anhchangdatinh1107 cảm ơn bài này.
  4. HảiYến2k

    HảiYến2k Well-Known Member

    Tham gia ngày:
    5/7/19
    Bài viết:
    249
    Đã được cảm ơn:
    324
    Giới tính:
    Nữ
    Cho m xin p1 p3 p4 đi a
     
    tamquocgia94 cảm ơn bài này.
  5. tamquocgia94

    tamquocgia94 Well-Known Member

    Tham gia ngày:
    30/10/17
    Bài viết:
    1,344
    Đã được cảm ơn:
    42,619
    Giới tính:
    Nam
    Nghề nghiệp:
    Osin tổng thống
    Nơi ở:
    Dubai
    Trong folder có p1 vs p3 nha bạn, còn p4 mình không có
     
    authienvu0123456 cảm ơn bài này.
  6. HảiYến2k

    HảiYến2k Well-Known Member

    Tham gia ngày:
    5/7/19
    Bài viết:
    249
    Đã được cảm ơn:
    324
    Giới tính:
    Nữ
    OK thank b
     
  7. authienvu0123456

    authienvu0123456 Member

    Tham gia ngày:
    24/7/13
    Bài viết:
    67
    Đã được cảm ơn:
    32
    Hi Bạn, cho mình xin P.3 uslt luôn nha bạn, Tìm ko Thấy. thanks.
     
    tamquocgia94 cảm ơn bài này.
  8. tamquocgia94

    tamquocgia94 Well-Known Member

    Tham gia ngày:
    30/10/17
    Bài viết:
    1,344
    Đã được cảm ơn:
    42,619
    Giới tính:
    Nam
    Nghề nghiệp:
    Osin tổng thống
    Nơi ở:
    Dubai
    authienvu0123456 cảm ơn bài này.

Chia sẻ trang này