[Fshare] [Võ Thuật] Shaolin Temple 2: Kids from Shaolin 1984 ViE 1080p BluRay x264 AAC-WiKi

Thảo luận trong 'Phim có audio Việt' bắt đầu bởi tamquocgia94, 23/5/20 lúc 16:16.

  1. tamquocgia94

    tamquocgia94 Well-Known Member

    Tham gia ngày:
    30/10/17
    Bài viết:
    1,342
    Đã được cảm ơn:
    41,951
    Giới tính:
    Nam
    Nghề nghiệp:
    Osin tổng thống
    Nơi ở:
    Dubai
    Shaolin Temple 2: Kids from Shaolin 1984 ViE 1080p BluRay.x264 AAC-WiKi
    (Lý Liên Kiệt, Hoàng Thu Yến, Vu Thừa Huệ, Lưu Gia Huy)
    Thuyết Minh + Sub Việt Mux Sẵn
    [​IMG]
    [​IMG]

    Mã:
    General
    Unique ID                   : 178883346688243733831052433805215193907 (0x8693ADECC25D10F59CD23D773ECEDB33)
    Complete name               : C:\Users\tamquocgia\Downloads\Shaolin.Temple.2.Kids.from.Shaolin.1984.ViE.1080p.BluRay.x264.DTS-WiKi.mkv
    Format                      : Matroska
    Format version              : Version 4 / Version 2
    File size                   : 11.0 GiB
    Duration                    : 1h 43mn
    Overall bit rate            : 15.2 Mbps
    Movie name                  : YiFan @ WiKi
    Encoded date                : UTC 2020-05-23 08:24:18
    
    
    Writing application         : mkvmerge v7.9.0 ('Birds') 32bit
    Writing library             : libebml v1.3.1 + libmatroska v1.4.2
    Video
    ID                          : 1
    Format                      : AVC
    Format/Info                 : Advanced Video Codec
    Format profile              : High@L4.1
    Format settings, CABAC      : Yes
    Format settings, ReFrames   : 5 frames
    Codec ID                    : V_MPEG4/ISO/AVC
    Duration                    : 1h 43mn
    Bit rate                    : 13.5 Mbps
    Width                       : 1 920 pixels
    Height                      : 800 pixels
    Display aspect ratio        : 2.40:1
    Frame rate mode             : Constant
    Frame rate                  : 23.976 (24000/1001) fps
    Color space                 : YUV
    Chroma subsampling          : 4:2:0
    Bit depth                   : 8 bits
    Scan type                   : Progressive
    Bits/(Pixel*Frame)          : 0.367
    Stream size                 : 9.75 GiB (89%)
    Writing library             : x264 core 124 r2197+666+28 3970b70 tMod+MixAQ [8-bit@4:2:0 X86_64]
    Encoding settings           : cabac=1 / ref=5 / deblock=1:-3:-3 / analyse=0x3:0x133 / me=umh / subme=11 / psy=1 / fade_compensate=0.00 / psy_rd=1.05:0.10 / mixed_ref=1 / me_range=64 / chroma_me=1 / trellis=2 / 8x8dct=1 / cqm=0 / deadzone=21,11 / fast_pskip=0 / chroma_qp_offset=-3 / threads=12 / sliced_threads=0 / nr=0 / decimate=1 / interlaced=0 / bluray_compat=0 / constrained_intra=0 / fgo=0 / bframes=8 / b_pyramid=2 / b_adapt=2 / b_bias=0 / direct=3 / weightb=1 / open_gop=0 / weightp=2 / keyint=250 / keyint_min=23 / scenecut=40 / intra_refresh=0 / rc_lookahead=80 / rc=2pass / mbtree=1 / bitrate=13500 / ratetol=1.0 / qcomp=0.75 / qpmin=0 / qpmax=69 / qpstep=4 / cplxblur=20.0 / qblur=0.5 / vbv_maxrate=50000 / vbv_bufsize=50000 / nal_hrd=none / ip_ratio=1.40 / aq=1 / aq-strength=0.75 / aq-sensitivity=10.00 / aq-ifactor=1.00 / aq-pfactor=1.00 / aq-bfactor=1.00 / aq2=0
    Language                    : English
    Default                     : Yes
    Forced                      : No
    Audio #1
    ID                          : 2
    Format                      : AAC
    Format/Info                 : Advanced Audio Codec
    Format profile              : LC
    Codec ID                    : A_AAC
    Duration                    : 1h 43mn
    Bit rate                    : 192 Kbps
    Channel(s)                  : 2 channels
    Channel positions           : Front: L R
    Sampling rate               : 44.1 KHz
    Frame rate                  : 43.066 fps (1024 spf)
    Compression mode            : Lossy
    Stream size                 : 142 MiB (1%)
    Title                       : Thuyết Minh - Mux tamquocgia94.HDVN - Syned by anvietcanh2@NetHD.org
    Language                    : Vietnamese
    Default                     : No
    Forced                      : Yes
    Audio #2
    ID                          : 3
    Format                      : DTS
    Format/Info                 : Digital Theater Systems
    Mode                        : 16
    Format settings, Endianness : Big
    Codec ID                    : A_DTS
    Duration                    : 1h 43mn
    Bit rate mode               : Constant
    Bit rate                    : 1 509 Kbps
    Channel(s)                  : 6 channels
    Channel positions           : Front: L C R, Side: L R, LFE
    Sampling rate               : 48.0 KHz
    Frame rate                  : 93.750 fps (512 spf)
    Bit depth                   : 24 bits
    Compression mode            : Lossy
    Stream size                 : 1.09 GiB (10%)
    Language                    : Chinese
    Default                     : Yes
    Forced                      : No
    Text
    ID                          : 4
    Format                      : UTF-8
    Codec ID                    : S_TEXT/UTF8
    Codec ID/Info               : UTF-8 Plain Text
    Duration                    : 1h 39mn
    Bit rate                    : 67 bps
    Count of elements           : 1143
    Stream size                 : 48.9 KiB (0%)
    Language                    : Vietnamese
    Default                     : Yes
    Forced                      : No
    Menu
    00:00:00.000                : zh:00:00:00.000
    00:03:39.260                : zh:00:03:39.260
    00:08:33.262                : zh:00:08:33.262
    00:13:17.129                : zh:00:13:17.129
    00:16:38.163                : zh:00:16:38.163
    00:21:14.731                : zh:00:21:14.731
    00:26:44.686                : zh:00:26:44.686
    00:32:56.891                : zh:00:32:56.891
    00:36:19.969                : zh:00:36:19.969
    00:41:02.626                : zh:00:41:02.626
    00:44:38.092                : zh:00:44:38.092
    00:48:00.794                : zh:00:48:00.794
    00:54:01.655                : zh:00:54:01.655
    00:58:51.653                : zh:00:58:51.653
    01:01:14.128                : zh:01:01:14.128
    01:05:09.196                : zh:01:05:09.196
    01:08:27.269                : zh:01:08:27.269
    01:12:24.423                : zh:01:12:24.423
    01:18:53.353                : zh:01:18:53.353
    01:24:44.621                : zh:01:24:44.621
    01:28:21.838                : zh:01:28:21.838
    01:33:31.105                : zh:01:33:31.105
    01:38:45.169                : zh:01:38:45.169
    01:41:49.436                : zh:01:41:49.436
    01:43:21.195                : zh:01:43:21.195
    Link Tải Phim
    Nhấn nút Cảm ơn (dưới chân bài) để thấy link!
     

Chia sẻ trang này