[Fshare] VTV Đặc Biệt Tháng 01 2020 - Park Hang Seo HDTV 1080p50 AAC 2.0-Wanara

Thảo luận trong 'Phim tài liệu - Documentaries' bắt đầu bởi wanara, 8/1/20.

  1. wanara

    wanara Well-Known Member

    Tham gia ngày:
    2/9/10
    Bài viết:
    1,087
    Đã được cảm ơn:
    22,521
    Giới tính:
    Nam
    Nơi ở:
    Việt Nam
    Web:
    VTV Đặc Biệt Tháng 01 2020
    Park Hang Seo
    HDTV 1080p50 AAC 2.0-Wanara

    [​IMG] [​IMG] [​IMG] [​IMG] [​IMG] [​IMG] [​IMG] [​IMG] [​IMG] [​IMG] [​IMG] [​IMG] [​IMG] [​IMG]

    Mã:

    
    	

    General Format : MPEG-4 Format profile : Base Media Codec ID : isom (isom/iso2/avc1/mp41) File size : 3.12 GiB Duration : 54 min 29 s Overall bit rate mode : Constant Overall bit rate : 8 199 kb/s Encoded date : UTC 2020-01-06 15:06:04 Tagged date : UTC 2020-01-06 15:06:04 Writing application : Lavf58.30.100 Video ID : 1 Format : AVC Format/Info : Advanced Video Codec Format profile : High@L4.2 Format settings : CABAC / 4 Ref Frames Format settings, CABAC : Yes Format settings, Reference : 4 frames Codec ID : avc1 Codec ID/Info : Advanced Video Coding Duration : 54 min 29 s Bit rate mode : Constant Bit rate : 8 000 kb/s Width : 1 920 pixels Height : 1 080 pixels Display aspect ratio : 16:9 Frame rate mode : Constant Frame rate : 50.000 FPS Color space : YUV Chroma subsampling : 4:2:0 Bit depth : 8 bits Scan type : Progressive Bits/(Pixel*Frame) : 0.077 Stream size : 3.04 GiB (98%) Encoded date : UTC 2020-01-06 15:06:04 Tagged date : UTC 2020-01-06 15:06:04 Color range : Limited Color primaries : BT.709 Transfer characteristics : BT.709 Matrix coefficients : BT.709 Codec configuration box : avcC Audio ID : 2 Format : AAC LC Format/Info : Advanced Audio Codec Low Complexity Codec ID : mp4a-40-2 Duration : 54 min 28 s Bit rate mode : Constant Bit rate : 192 kb/s Channel(s) : 2 channels Channel layout : L R Sampling rate : 48.0 kHz Frame rate : 46.875 FPS (1024 SPF) Compression mode : Lossy Stream size : 74.8 MiB (2%) Default : Yes Alternate group : 1 Encoded date : UTC 2020-01-06 15:06:04 Tagged date : UTC 2020-01-06 15:06:04
    [​IMG]
    Tập phim kể về cuộc đời và sự nghiệp làm HLV của ông Park Hang Seo và hành trình
    chinh phục chiếc Huy chương vàng Sea Games 30 sau 60 năm chờ đợi.
    Xem thêm:
     
  2. nghia1311

    nghia1311 New Member

    Tham gia ngày:
    4/7/19
    Bài viết:
    14
    Đã được cảm ơn:
    5
    Giới tính:
    Nam
    cảm ơn bạn nhé
     
  3. dtlinh166

    dtlinh166 New Member

    Tham gia ngày:
    8/1/20
    Bài viết:
    2
    Đã được cảm ơn:
    0
    Giới tính:
    Nam
    thanks you so much
     
  4. hung6969

    hung6969 New Member

    Tham gia ngày:
    12/12/10
    Bài viết:
    12
    Đã được cảm ơn:
    11
    đồ họa VTV làm sub nhỏ quá
     
  5. baohuy910

    baohuy910 New Member

    Tham gia ngày:
    27/12/19
    Bài viết:
    26
    Đã được cảm ơn:
    4
    Giới tính:
    Nam
    hay
     
  6. cuong_7694

    cuong_7694 Well-Known Member

    Tham gia ngày:
    8/9/12
    Bài viết:
    1,497
    Đã được cảm ơn:
    740
    Nghề nghiệp:
    Sinh vien
    Nơi ở:
    ha noi
    Chương trình về Huyền thoại của chúng ta ! Quất ngay!
     
    saigon1979 cảm ơn bài này.

Chia sẻ trang này