[Fshare] Vy Oanh - Fly [Official MV 2K - Hàng Hiếm]

Thảo luận trong 'HD Video Clip' bắt đầu bởi liemvn2212, 12/9/17.

Tags
  1. liemvn2212

    liemvn2212 Well-Known Member

    Tham gia ngày:
    8/6/09
    Bài viết:
    746
    Đã được cảm ơn:
    27,175
    Điểm thành tích:
    93
    Giới tính:
    Nam
    Nghề nghiệp:
    IT Apprentice
    Nơi ở:
    Sài Gòn
    Tiền:
    1,063 CR
    Vy Oanh - Fly [Official MV 2K - Hàng Hiếm]

    [​IMG]
    Mã:
    General
    
    
    	

    Complete name : C:\Vy_Oanh_Fly_2K_Best.mov

    Format : MPEG-4 Format profile : QuickTime Codec ID : qt 2005.03 (qt ) File size : 1.75 GiB Duration : 4 min 22 s Overall bit rate : 57.2 Mb/s Encoded date : UTC 2012-05-22 08:36:46 Tagged date : UTC 2012-05-22 08:58:19 Writing library : Apple QuickTime Media/UUID : 3CC1EBB9-B8AA-4BC7-B58C-0063513320CA Media/History/UUID : 5704AD63-27D6-4E00-9563-71DD11B9755A Video ID : 1 Format : AVC Format/Info : Advanced Video Codec Format profile : Main@L5 Format settings, CABAC : No Format settings, RefFrames : 2 frames Codec ID : avc1 Codec ID/Info : Advanced Video Coding Duration : 4 min 22 s Bit rate : 56.1 Mb/s Width : 2 048 pixels Height : 1 152 pixels Display aspect ratio : 16:9 Frame rate mode : Constant Frame rate : 25.000 FPS Color space : YUV Chroma subsampling : 4:2:0 Bit depth : 8 bits Scan type : Progressive Bits/(Pixel*Frame) : 0.951 Stream size : 1.74 GiB (99%) Language : English Encoded date : UTC 2012-05-22 08:57:41 Tagged date : UTC 2012-05-22 08:58:19 Color range : Limited Color primaries : BT.709 Transfer characteristics : BT.709 Matrix coefficients : BT.709 Audio ID : 2 Format : AAC Format/Info : Advanced Audio Codec Format profile : LC Codec ID : 40 Duration : 4 min 22 s Source duration : 4 min 22 s Bit rate mode : Constant Bit rate : 320 kb/s Channel(s) : 2 channels Channel positions : Front: L R Sampling rate : 48.0 kHz Frame rate : 46.875 FPS (1024 SPF) Compression mode : Lossy Stream size : 10.1 MiB (1%) Source stream size : 10.1 MiB (1%) Language : English Encoded date : UTC 2012-05-22 08:57:42 Tagged date : UTC 2012-05-22 08:58:19 Other ID : 3 Type : Time code Format : QuickTime TC Duration : 4 min 22 s Time code of first frame : 01:00:00:00 Time code, striped : Yes Language : English Encoded date : UTC 2012-05-22 08:58:19 Tagged date : UTC 2012-05-22 08:58:19
    Nối tiếp thành công ấn tượng của MV Đồng xanh với những cảnh quay đồng lúa Việt Nam đẹp lung linh, Vy Oanh vừa tung ra MV Fly và tiếp tục nhận được những phản hồi vô cùng tích cực từ cư dân mạng.

    Theo Vy Oanh chia sẻ, MV Fly là sản phẩm mà chị ấy đầu tư nhiều nhất từ trước đến nay cả về công sức lẫn tiền bạc. Ngoài một ekip giỏi là đạo diễn Bone Hồ và đội ngũ làm phim Thiên mệnh anh hùng, MV Fly còn được quay bằng tiêu chuẩn một thước phim quảng cáo với hệ thống máy móc tân tiến nhất hiện nay mà các nhà làm phim trên thế giới đang sử dụng. Thế nên, phần hình ảnh của MV có thể nói là “đẹp miễn chê”.

    Một số chi tiết “độc-lạ” của MV Fly mà lần đầu có ở Việt Nam như: quay hình giữa biển, Vy Oanh di chuyển trên xe không người lái, một chiếc thùng container hoàn toàn mới được cắt làm đôi và gia cố lại để chứa một dàn nhạc bên trong… Và cảnh đặc sắc nhất của MV là Vy Oanh bay lên cùng chiếc xe dựa theo ý tưởng của bộ phim Up...

    [​IMG]


    Link Fshare:
    Nhấn nút Cảm ơn (dưới chân bài) để thấy link!
     
    Chỉnh sửa cuối: 21/11/17
  2. anhgraphy

    anhgraphy New Member

    Tham gia ngày:
    3/9/11
    Bài viết:
    27
    Đã được cảm ơn:
    19
    Điểm thành tích:
    3
    Giới tính:
    Nam
    Web:
    Tiền:
    66 CR
    thank
     
    Chỉnh sửa cuối: 28/7/19

Chia sẻ trang này