[Fshare] . WINNER Everywhere Tour Encore in Seoul 20190105 FEED 1080i H264

Thảo luận trong 'Asia' bắt đầu bởi adm820, 6/1/19.

  1. adm820

    adm820 Moderator Thành viên BQT

    Tham gia ngày:
    1/12/10
    Bài viết:
    6,661
    Đã được cảm ơn:
    153,124
    Giới tính:
    Nam
    [​IMG]



    [​IMG]



    [​IMG]



    Mã:
    Format                                   : MPEG-TS
    
    
    	

    File size : 14.1 GiB

    Duration : 2h 9mn Overall bit rate mode : Variable Overall bit rate : 15.6 Mbps Video ID : 33 (0x21) Menu ID : 1 (0x1) Format : AVC Format/Info : Advanced Video Codec Format profile : Main@L4 Format settings, CABAC : Yes Format settings, ReFrames : 4 frames Codec ID : 27 Duration : 2h 9mn Bit rate : 14.3 Mbps Width : 1 920 pixels Height : 1 080 pixels Display aspect ratio : 16:9 Frame rate : 25.000 fps Color space : YUV Chroma subsampling : 4:2:0 Bit depth : 8 bits Scan type : Interlaced Scan type, store method : Separated fields Scan order : Top Field First Bits/(Pixel*Frame) : 0.276 Stream size : 12.9 GiB (92%) Color range : Limited Color primaries : BT.709 Transfer characteristics : BT.709 Matrix coefficients : BT.709 Audio #1 ID : 34 (0x22) Menu ID : 1 (0x1) Format : MPEG Audio Format version : Version 1 Format profile : Layer 2 Codec ID : 3 Duration : 2h 9mn Bit rate mode : Constant Bit rate : 256 Kbps Channel(s) : 2 channels Sampling rate : 48.0 KHz Compression mode : Lossy Delay relative to video : -80ms Stream size : 236 MiB (2%) Language : English Audio #2 ID : 35 (0x23) Menu ID : 1 (0x1) Format : MPEG Audio Format version : Version 1 Format profile : Layer 2 Codec ID : 3 Duration : 2h 9mn Bit rate mode : Constant Bit rate : 256 Kbps Channel(s) : 2 channels Sampling rate : 48.0 KHz Compression mode : Lossy Delay relative to video : -80ms Stream size : 236 MiB (2%) Language : English
     
    liveror, lambarca, natal303 and 3 others like this.
  2. adm820

    adm820 Moderator Thành viên BQT

    Tham gia ngày:
    1/12/10
    Bài viết:
    6,661
    Đã được cảm ơn:
    153,124
    Giới tính:
    Nam
    Link tải :

    Nhấn nút Cảm ơn (dưới chân bài) để thấy link!
     
    Ylang1030, liveror, MinhNk11 and 8 others like this.
  3. keita1224

    keita1224 New Member

    Tham gia ngày:
    6/1/19
    Bài viết:
    1
    Đã được cảm ơn:
    1
    thanks for sharing~
     
    Alios2012 cảm ơn bài này.
  4. Ylang1030

    Ylang1030 Member

    Tham gia ngày:
    8/10/17
    Bài viết:
    50
    Đã được cảm ơn:
    6
    Giới tính:
    Nữ
    Nhờ bác adm820 reup lại link với ạ, link die hết rồi ạ, cảm ơn bác nhiều
     

Chia sẻ trang này