[4K REMUX] Spies in Disguise 2019 UHD BluRay 2160p TrueHD Atmos 7.1 HEVC REMUX-FraMeSToR

Thảo luận trong 'Bluray Remux 4K' bắt đầu bởi adm820, 28/2/20.

  1. adm820

    adm820 Moderator Thành viên BQT

    Tham gia ngày:
    1/12/10
    Bài viết:
    15,840
    Đã được cảm ơn:
    298,341
    Giới tính:
    Nam
    [​IMG]

    upload_2020-2-28_23-34-0.png

    Mã:
    General
    
    
    	

    Unique ID : 69079486874713030822284573989165317331 (0x33F839A8C561F5CD8AF738759B5BBCD3)

    Complete name : C:\Users\Administrator\Downloads\Spies.in.Disguise.2019.UHD.BluRay.2160p.TrueHD.Atmos.7.1.HEVC.REMUX-FraMeSToR\Spies.in.Disguise.2019.UHD.BluRay.2160p.TrueHD.Atmos.7.1.HEVC.REMUX-FraMeSToR.mkv Format : Matroska Format version : Version 4 File size : 42.3 GiB Duration : 1 h 41 min Overall bit rate mode : Variable Overall bit rate : 59.5 Mb/s Movie name : Spies in Disguise 4K Encoded date : UTC 2020-02-28 14:50:06 Writing application : mkvmerge v43.0.0 ('The Quartermaster') 64-bit Writing library : libebml v1.3.10 + libmatroska v1.5.2 IMDB : tt5814534 TMDB : movie/431693 Video ID : 1 Format : HEVC Format/Info : High Efficiency Video Coding Format profile : Main [email protected]@High HDR format : SMPTE ST 2086, HDR10 compatible Codec ID : V_MPEGH/ISO/HEVC Duration : 1 h 41 min Bit rate : 54.5 Mb/s Width : 3 840 pixels Height : 2 160 pixels Display aspect ratio : 16:9 Frame rate mode : Constant Frame rate : 23.976 (24000/1001) FPS Color space : YUV Chroma subsampling : 4:2:0 (Type 2) Bit depth : 10 bits Bits/(Pixel*Frame) : 0.274 Stream size : 38.8 GiB (92%) Writing library : ATEME Titan File 3.9.0 (4.9.0.0) Default : Yes Forced : No Color range : Limited Color primaries : BT.2020 Transfer characteristics : PQ Matrix coefficients : BT.2020 non-constant Mastering display color pri : Display P3 Mastering display luminance : min: 0.0050 cd/m2, max: 1000 cd/m2 Audio #1 ID : 2 Format : MLP FBA 16-ch Format/Info : Meridian Lossless Packing FBA with 16-channel presentation Commercial name : Dolby TrueHD with Dolby Atmos Codec ID : A_TRUEHD Duration : 1 h 41 min Bit rate mode : Variable Bit rate : 4 125 kb/s Maximum bit rate : 7 800 kb/s Channel(s) : 8 channels Channel layout : L R C LFE Ls Rs Lb Rb Sampling rate : 48.0 kHz Frame rate : 1 200.000 FPS (40 SPF) Compression mode : Lossless Stream size : 2.93 GiB (7%) Title : TrueHD Atmos 7.1 Language : English Default : Yes Forced : No Number of dynamic objects : 13 Bed channel count : 1 channel Bed channel configuration : LFE Audio #2 ID : 3 Format : AC-3 Format/Info : Audio Coding 3 Commercial name : Dolby Digital Codec ID : A_AC3 Duration : 1 h 41 min Bit rate mode : Constant Bit rate : 640 kb/s Channel(s) : 6 channels Channel layout : L R C LFE Ls Rs Sampling rate : 48.0 kHz Frame rate : 31.250 FPS (1536 SPF) Compression mode : Lossy Stream size : 466 MiB (1%) Title : AC3 5.1 Language : English Service kind : Complete Main Default : No Forced : No Text #1 ID : 4 Format : PGS Codec ID : S_HDMV/PGS Codec ID/Info : Picture based subtitle format used on BDs/HD-DVDs Duration : 1 h 18 min Bit rate : 92 b/s Count of elements : 12 Stream size : 52.9 KiB (0%) Title : English (Forced only) Language : English Default : Yes Forced : Yes Text #2 ID : 5 Format : PGS Codec ID : S_HDMV/PGS Codec ID/Info : Picture based subtitle format used on BDs/HD-DVDs Duration : 1 h 41 min Bit rate : 45.9 kb/s Count of elements : 3822 Stream size : 33.2 MiB (0%) Title : English (SDH) Language : English Default : No Forced : No Text #3 ID : 6 Format : PGS Codec ID : S_HDMV/PGS Codec ID/Info : Picture based subtitle format used on BDs/HD-DVDs Duration : 1 h 40 min Bit rate : 36.5 kb/s Count of elements : 2926 Stream size : 26.2 MiB (0%) Title : French Language : French Default : No Forced : No Text #4 ID : 7 Format : PGS Codec ID : S_HDMV/PGS Codec ID/Info : Picture based subtitle format used on BDs/HD-DVDs Duration : 1 h 40 min Bit rate : 32.8 kb/s Count of elements : 2722 Stream size : 23.5 MiB (0%) Title : Spanish (Latin American) Language : Spanish Default : No Forced : No Menu 00:00:00.000 : en:Chapter 01 00:04:09.458 : en:Chapter 02 00:06:54.456 : en:Chapter 03 00:11:53.796 : en:Chapter 04 00:15:30.972 : en:Chapter 05 00:20:35.443 : en:Chapter 06 00:23:20.816 : en:Chapter 07 00:26:42.392 : en:Chapter 08 00:30:59.483 : en:Chapter 09 00:36:06.539 : en:Chapter 10 00:41:34.909 : en:Chapter 11 00:45:41.906 : en:Chapter 12 00:49:57.745 : en:Chapter 13 00:53:58.861 : en:Chapter 14 00:56:34.266 : en:Chapter 15 01:00:06.728 : en:Chapter 16 01:08:46.873 : en:Chapter 17 01:12:51.742 : en:Chapter 18 01:17:34.233 : en:Chapter 19 01:20:18.897 : en:Chapter 20 01:23:19.036 : en:Chapter 21 01:26:05.202 : en:Chapter 22 01:29:47.132 : en:Chapter 23 01:33:08.833 : en:Chapter 24
    [​IMG] [​IMG] [​IMG] [​IMG]


    Link tải

    Nhấn nút Cảm ơn (dưới chân bài) để thấy link!
     
  2. Đang tải...


  3. singlitevn

    singlitevn New Member

    Tham gia ngày:
    29/2/20
    Bài viết:
    20
    Đã được cảm ơn:
    8
    Giới tính:
    Nam
    Thanks bác
     
  4. singlitevn

    singlitevn New Member

    Tham gia ngày:
    29/2/20
    Bài viết:
    20
    Đã được cảm ơn:
    8
    Giới tính:
    Nam
    phim này mấy bé nhà em thích lắm, thanks bác
     
  5. ghostboylc

    ghostboylc Active Member

    Tham gia ngày:
    14/10/17
    Bài viết:
    189
    Đã được cảm ơn:
    117
    Giới tính:
    Nam
    hóng sub việt
     

Chia sẻ trang này