[Fshare] [Ca Nhạc] Paris By Night 130-In Singapore -Glamour (2020) [1080p BluRay DD2.0 x 264]

Thảo luận trong 'HD Video Clip' bắt đầu bởi coduocgidau, 24/2/20.

  1. coduocgidau

    coduocgidau Uploader

    Tham gia ngày:
    14/11/12
    Bài viết:
    19,672
    Đã được cảm ơn:
    517,622
    [Ca Nhạc] Paris By Night 130-In Singapore -Glamour (2020) [1080p BluRay DD2.0 x 264]​

    [​IMG]

    [​IMG]

    Mã:
    
    	

    Complete name : I:\Converter\PBN130-BLURAY 1080p.mkv

    Format : Matroska Format version : Version 2 File size : 24.6 GiB Duration : 6 h 9 min Overall bit rate mode : Constant Overall bit rate : 9 517 kb/s Movie name : PBN130_BLURAY.Title10 Encoded date : UTC 2020-02-24 04:39:45 Writing application : DVDFab 11.0.7.5 Writing library : libebml v1.3.4 + libmatroska v1.4.5 Video ID : 1 Format : AVC Format/Info : Advanced Video Codec Format profile : [email protected] Format settings : CABAC / 1 Ref Frames Format settings, CABAC : Yes Format settings, Reference : 1 frame Format settings, GOP : M=1, N=30 Codec ID : V_MPEG4/ISO/AVC Duration : 6 h 9 min Bit rate mode : Constant Bit rate : 9 322 kb/s Width : 1 920 pixels Height : 1 080 pixels Display aspect ratio : 16:9 Frame rate mode : Constant Frame rate : 29.970 (30000/1001) FPS Color space : YUV Chroma subsampling : 4:2:0 Bit depth : 8 bits Scan type : Progressive Bits/(Pixel*Frame) : 0.150 Stream size : 24.1 GiB (98%) Default : Yes Forced : No Color range : Limited Color primaries : BT.709 Transfer characteristics : BT.709 Matrix coefficients : BT.709 Audio ID : 2 Format : AC-3 Format/Info : Audio Coding 3 Commercial name : Dolby Digital Codec ID : A_AC3 Duration : 6 h 9 min Bit rate mode : Constant Bit rate : 192 kb/s Channel(s) : 2 channels Channel layout : L R Sampling rate : 48.0 kHz Frame rate : 31.250 FPS (1536 SPF) Compression mode : Lossy Stream size : 508 MiB (2%) Language : English Service kind : Complete Main Default : Yes Forced : No
    Nhấn nút Cảm ơn (dưới chân bài) để thấy link!

     
  2. Đang tải...


  3. Anh7_n

    Anh7_n Active Member

    Tham gia ngày:
    18/5/10
    Bài viết:
    133
    Đã được cảm ơn:
    60
    Giới tính:
    Nam
    Cảm ơn bác Coduocgidau, mến chúc bác sức khỏe dồi dào để tiếp tục ...
     
  4. Superkames

    Superkames Well-Known Member

    Tham gia ngày:
    3/4/10
    Bài viết:
    484
    Đã được cảm ơn:
    2,210
    Giới tính:
    Nam
    Nơi ở:
    TPHCM
    Tks bác, bác đúng là anh hùng diệt ổ cứng.
    Cách đây tầm 1 năm em mò vào đây kết quả là giờ đi tong 20TB.
     
    Kim Mã 1978 and quochuan like this.

Chia sẻ trang này