[Fshare] [Ca Nhạc] Paris By Night 130-In Singapore -Glamour (2020) [720p BluRay DD2.0 x 264]

Thảo luận trong 'HD Video Clip' bắt đầu bởi coduocgidau, 24/2/20.

  1. coduocgidau

    coduocgidau Uploader

    Tham gia ngày:
    14/11/12
    Bài viết:
    19,672
    Đã được cảm ơn:
    512,982
    [Ca Nhạc] Paris By Night 130-In Singapore -Glamour (2020) [720p BluRay DD2.0 x 264]
    [​IMG]


    [​IMG]

    Mã:
    
    	

    Complete name : I:\Converter\PBN130_BLURAY.720p.mkv Format : Matroska Format version : Version 2 File size : 11.2 GiB Duration : 6 h 9 min Overall bit rate mode : Constant Overall bit rate : 4 339 kb/s Movie name : PBN130_BLURAY.Title10 Encoded date : UTC 2020-02-24 04:17:30 Writing application : DVDFab 11.0.7.5 Writing library : libebml v1.3.4 + libmatroska v1.4.5 Video ID : 1 Format : AVC Format/Info : Advanced Video Codec Format profile : [email protected] Format settings : CABAC / 1 Ref Frames Format settings, CABAC : Yes Format settings, Reference : 1 frame Format settings, GOP : M=1, N=30 Codec ID : V_MPEG4/ISO/AVC Duration : 6 h 9 min Bit rate mode : Constant Bit rate : 4 143 kb/s Width : 1 280 pixels Height : 720 pixels Display aspect ratio : 16:9 Frame rate mode : Constant Frame rate : 29.970 (30000/1001) FPS Color space : YUV Chroma subsampling : 4:2:0 Bit depth : 8 bits Scan type : Progressive Bits/(Pixel*Frame) : 0.150 Stream size : 10.7 GiB (96%) Default : Yes Forced : No Color range : Limited Color primaries : BT.709 Transfer characteristics : BT.709 Matrix coefficients : BT.709 Audio ID : 2 Format : AC-3 Format/Info : Audio Coding 3 Commercial name : Dolby Digital Codec ID : A_AC3 Duration : 6 h 9 min Bit rate mode : Constant Bit rate : 192 kb/s Channel(s) : 2 channels Channel layout : L R Sampling rate : 48.0 kHz Frame rate : 31.250 FPS (1536 SPF) Compression mode : Lossy Stream size : 508 MiB (4%) Language : English Service kind : Complete Main Default : Yes Forced : No
    Nhấn nút Cảm ơn (dưới chân bài) để thấy link!
     
  2. Đang tải...


  3. BIGITO

    BIGITO New Member

    Tham gia ngày:
    22/9/14
    Bài viết:
    27
    Đã được cảm ơn:
    21
    cam on ban
     
  4. nhatphi1986

    nhatphi1986 Member

    Tham gia ngày:
    7/3/17
    Bài viết:
    14
    Đã được cảm ơn:
    51
    Giới tính:
    Nam
     
    phatluu, _QuyLe_, advhd and 4 others like this.
  5. gtltunganh

    gtltunganh Member

    Tham gia ngày:
    26/10/10
    Bài viết:
    37
    Đã được cảm ơn:
    3
    Cám ơn bác đã chia sẽ
     
  6. koalablue

    koalablue Active Member

    Tham gia ngày:
    19/9/11
    Bài viết:
    302
    Đã được cảm ơn:
    89
    Giới tính:
    Nữ
    Thank you my friend!
     
    monkey2 cảm ơn bài này.
  7. monkey2

    monkey2 New Member

    Tham gia ngày:
    2/12/18
    Bài viết:
    7
    Đã được cảm ơn:
    0
    Thank you!
     

Chia sẻ trang này