[Fshare] [DVD-ISO] Asia 19 - Tác Giả & Tác Phẩm 2

Thảo luận trong 'mHD, SD Video Clips' bắt đầu bởi vinhtq115, 3/10/21.

  1. vinhtq115

    vinhtq115 Well-Known Member

    Tham gia ngày:
    1/4/12
    Bài viết:
    133
    Đã được cảm ơn:
    437
    Giới tính:
    Nam
    [​IMG]

    Tracklist:

    1. Opening Theme - Vũ Đoàn Asia
    2. Con Thuyền Không Bến - Khánh Ly
    3. Mười Thương - Vũ Khanh
    4. Một Chuyến Bay Đêm - Thanh Trúc
    5. Mùa Xuân Trong Đôi Mắt Em - Ninh Cát Loan Châu
    6. Dốc Mơ - Khánh Hà
    7. Days and Nights of Missing You - Shayla
    8. Còn Yêu Em Mãi - Lê Tâm
    9. Chiều Mưa Biên Giới - Thanh Tuyền
    10. Hãy Yêu Nhau Đi - Thanh Trúc & Gia Huy
    11. Loan Mắt Nhung - Bảo Tuấn
    12. Đỉnh Gió Hú - Lâm Nhật Tiến
    13. Mái Tranh Mơ - Duy Linh & Yến Phương
    14. Nỗi Đau Ngọt Ngào - Lâm Thúy Vân
    15. Thương Về Quê Tôi - Mạnh Đình
    16. Don't Know Why - Trish Thùy Trang
    17. Mộng Chiều Xuân - Ý Lan
    18. Giữ Đời Cho Nhau - Tuấn Ngọc
    19. Tình Yêu Trái Đắng - Sỹ Đan
    20. Từ Đó Em Buồn - Diệp Thanh Thanh
    21. Cát Bụi Tình Xa - Thúy Hà Tú
    22. Closing Theme - Vũ Đoàn Asia
    MediaInfo:

    Mã:
    General
    Complete name                            : VTS_01_1.VOB
    Format                                   : MPEG-PS
    File size                                : 1 024 MiB
    Duration                                 : 20 min 36 s
    Overall bit rate mode                    : Constant
    Overall bit rate                         : 6 948 kb/s
    Video
    ID                                       : 224 (0xE0)
    Format                                   : MPEG Video
    Format version                           : Version 2
    Format profile                           : [email protected]
    Format settings                          : CustomMatrix / BVOP
    Format settings, BVOP                    : Yes
    Format settings, Matrix                  : Custom
    Format settings, GOP                     : M=3, N=6
    Format settings, picture structure       : Frame
    Duration                                 : 20 min 36 s
    Bit rate mode                            : Constant
    Bit rate                                 : 6 000 kb/s
    Width                                    : 720 pixels
    Height                                   : 480 pixels
    Display aspect ratio                     : 16:9
    Frame rate                               : 29.970 (30000/1001) FPS
    Standard                                 : NTSC
    Color space                              : YUV
    Chroma subsampling                       : 4:2:0
    Bit depth                                : 8 bits
    Scan type                                : Interlaced
    Scan order                               : Top Field First
    Compression mode                         : Lossy
    Bits/(Pixel*Frame)                       : 0.579
    Time code of first frame                 : 00:00:01:18
    Time code source                         : Group of pictures header
    GOP, Open/Closed                         : Open
    Stream size                              : 890 MiB (87%)
    Audio #1
    ID                                       : 189 (0xBD)-128 (0x80)
    Format                                   : AC-3
    Format/Info                              : Audio Coding 3
    Commercial name                          : Dolby Digital
    Muxing mode                              : DVD-Video
    Duration                                 : 20 min 35 s
    Bit rate mode                            : Constant
    Bit rate                                 : 320 kb/s
    Channel(s)                               : 2 channels
    Channel layout                           : L R
    Sampling rate                            : 48.0 kHz
    Frame rate                               : 31.250 FPS (1536 SPF)
    Compression mode                         : Lossy
    Delay relative to video                  : -67 ms
    Stream size                              : 47.1 MiB (5%)
    Service kind                             : Complete Main
    Audio #2
    ID                                       : 189 (0xBD)-129 (0x81)
    Format                                   : AC-3
    Format/Info                              : Audio Coding 3
    Commercial name                          : Dolby Digital
    Muxing mode                              : DVD-Video
    Duration                                 : 20 min 35 s
    Bit rate mode                            : Constant
    Bit rate                                 : 448 kb/s
    Channel(s)                               : 6 channels
    Channel layout                           : L R C LFE Ls Rs
    Sampling rate                            : 48.0 kHz
    Frame rate                               : 31.250 FPS (1536 SPF)
    Compression mode                         : Lossy
    Delay relative to video                  : -67 ms
    Stream size                              : 66.0 MiB (6%)
    Service kind                             : Complete Main
    Menu
    Link download:
    Nhấn nút Cảm ơn (dưới chân bài) để thấy link!
     
  2. Đang tải...


  3. lostoneakai

    lostoneakai Active Member

    Tham gia ngày:
    28/2/20
    Bài viết:
    463
    Đã được cảm ơn:
    236
    Giới tính:
    Nam
    Thấy có req bên threeboys
     
  4. vinhtq115

    vinhtq115 Well-Known Member

    Tham gia ngày:
    1/4/12
    Bài viết:
    133
    Đã được cảm ơn:
    437
    Giới tính:
    Nam
    Là em request đấy :D
    Hqua leech đc từ Usenet rồi nên xóa đi rồi
     
  5. lostoneakai

    lostoneakai Active Member

    Tham gia ngày:
    28/2/20
    Bài viết:
    463
    Đã được cảm ơn:
    236
    Giới tính:
    Nam
    Mình đang tìm vcd/dvd của nhóm china dolls Thái Lan mà chưa thấy tăm hơi gì.
     
  6. tkltmt

    tkltmt Well-Known Member

    Tham gia ngày:
    8/6/09
    Bài viết:
    10,272
    Đã được cảm ơn:
    25,777
    thích nhất bài 7 ngày xưa coi băng video
     
  7. vinhtq115

    vinhtq115 Well-Known Member

    Tham gia ngày:
    1/4/12
    Bài viết:
    133
    Đã được cảm ơn:
    437
    Giới tính:
    Nam
    em tìm dvd này chỉ để lấy bài Chiều Mưa Biên Giới thôi.
    mặc dù bên Asia có up hết lên Youtube rồi nhưng nhìn 2 cái bar ở bên cạnh video trông ngứa mắt quá :D
     
  8. tkltmt

    tkltmt Well-Known Member

    Tham gia ngày:
    8/6/09
    Bài viết:
    10,272
    Đã được cảm ơn:
    25,777
    Asia làm lại video ko đẹp bằng TN, có mấy cái răng cưa tùm lum, ko crop mà kéo 16:9 trông kì hết sức
     
  9. vinhtq115

    vinhtq115 Well-Known Member

    Tham gia ngày:
    1/4/12
    Bài viết:
    133
    Đã được cảm ơn:
    437
    Giới tính:
    Nam
    DVD này k để 4:3 mà lại để ratio 16:9 thêm 2 black bar bên cạnh :D
    [​IMG]
     

Chia sẻ trang này