[Hành động] Double Jeopardy 1999 1080p BluRay DD+ 5.1 x264-TayTO -Hiểm nguy kép

Thảo luận trong 'Fshare.vn' bắt đầu bởi xemaydinh, 22/10/21.

  1. xemaydinh

    xemaydinh Tem

    Tham gia ngày:
    3/7/10
    Bài viết:
    31,640
    Đã được cảm ơn:
    141,909
    Phim mới ra bluray


    Double Jeopardy 1999 1080p BluRay DD+ 5.1 x264-TayTO

    Hiểm nguy kép

    [​IMG]



    Title Double Jeopardy

    Year 1999
    Genre Crime
    Rating 6.5 (81,872 votes)
    Plot When Nick Parsons appears to be murdered his wife Libby is tried and convicted. Six years later Libby is paroled and is pursued by Travis Lehman (her parole officer) as she sets out to find her son and settle the score with Nick. Written by Les MacDonald at
    Director Bruce Beresford
    Casts Tommy Lee Jones / Ashley Judd / Benjamin Weir / Jay Brazeau / Bruce Greenwood…
    Runtime 105 min

    Libby Parsons và chồng Nick là những cư dân giàu có ở đảo Whidbey, Washington. Cùng với người bạn thân nhất của mình, Angela Green đề nghị chăm sóc con trai 4 tuổi của cô, Matty Libby và Nick đi thuyền vào cuối tuần trên du thuyền của họ. Sau một buổi làm tình, Libby ngủ thiếp đi. Cô thức dậy và thấy chồng mình mất tích và máu khắp tay, quần áo, chân và sàn thuyền. Một tàu Cảnh sát biển xuất hiện và Libby được phát hiện đang cầm con dao dính máu mà cô tìm thấy đang nằm trên boong tàu.


    General
    Unique ID : 297388067237836290989704032799946131722 (0xDFBADBBEC54A6772D11DA1B92197490A)
    Complete name : Double Jeopardy 1999 1080p BluRay DD+ 5.1 x264-TayTO.mkv
    Format : Matroska
    Format version : Version 4
    File size : 14.7 GiB
    Duration : 1 h 45 min
    Overall bit rate : 20.0 Mb/s
    Encoded date : UTC 2021-10-06 13:18:15
    Writing application : mkvmerge v61.0.0 ('So') 64-bit
    Writing library : libebml v1.4.2 + libmatroska v1.6.4

    Video
    ID : 1
    Format : AVC
    Format/Info : Advanced Video Codec
    Format profile : [email protected]
    Format settings : CABAC / 5 Ref Frames
    Format settings, CABAC : Yes
    Format settings, RefFrames : 5 frames
    Codec ID : V_MPEG4/ISO/AVC
    Duration : 1 h 45 min
    Bit rate : 18.8 Mb/s
    Width : 1 920 pixels
    Height : 800 pixels
    Display aspect ratio : 2.40:1
    Frame rate mode : Constant
    Frame rate : 23.976 (24000/1001) FPS
    Color space : YUV
    Chroma subsampling : 4:2:0
    Bit depth : 8 bits
    Scan type : Progressive
    Bits/(Pixel*Frame) : 0.510
    Stream size : 13.8 GiB (94%)
    Title : Double Jeopardy 1999 1080p BluRay DD+ 5.1 x264-TayTO
    Writing library : x264 core 164 r3075 --> UHD
    Encoding settings : cabac=1 / ref=5 / deblock=1:-3:-3 / analyse=0x3:0x133 / me=umh / subme=10 / psy=1 / psy_rd=1.05:0.00 / mixed_ref=1 / me_range=48 / chroma_me=1 / trellis=2 / 8x8dct=1 / cqm=0 / deadzone=21,11 / fast_pskip=0 / chroma_qp_offset=-2 / threads=6 / lookahead_threads=1 / sliced_threads=0 / nr=0 / decimate=0 / interlaced=0 / bluray_compat=0 / constrained_intra=0 / bframes=12 / b_pyramid=2 / b_adapt=2 / b_bias=0 / direct=1 / weightb=1 / open_gop=0 / weightp=2 / keyint=250 / keyint_min=23 / scenecut=40 / intra_refresh=0 / rc_lookahead=60 / rc=crf / mbtree=0 / crf=17.0 / qcomp=0.70 / qpmin=0 / qpmax=69 / qpstep=4 / vbv_maxrate=62500 / vbv_bufsize=78125 / crf_max=0.0 / nal_hrd=none / filler=0 / ip_ratio=1.30 / pb_ratio=1.20 / aq=3:0.78
    Language : English
    Default : Yes
    Forced : No
    Color range : Limited
    Color primaries : BT.709
    Transfer characteristics : BT.709
    Matrix coefficients : BT.709

    Audio #1
    ID : 2
    Format : E-AC-3
    Format/Info : Enhanced AC-3
    Commercial name : Dolby Digital Plus
    Codec ID : A_EAC3
    Duration : 1 h 45 min
    Bit rate mode : Constant
    Bit rate : 1 024 kb/s
    Channel(s) : 6 channels
    Channel layout : L R C LFE Ls Rs
    Sampling rate : 48.0 kHz
    Frame rate : 31.250 FPS (1536 SPF)
    Compression mode : Lossy
    Stream size : 770 MiB (5%)
    Language : English
    Service kind : Complete Main
    Default : Yes
    Forced : No

    Audio #2
    ID : 3
    Format : AC-3
    Format/Info : Audio Coding 3
    Commercial name : Dolby Digital
    Codec ID : A_AC3
    Duration : 1 h 45 min
    Bit rate mode : Constant
    Bit rate : 192 kb/s
    Channel(s) : 2 channels
    Channel layout : L R
    Sampling rate : 48.0 kHz
    Frame rate : 31.250 FPS (1536 SPF)
    Bit depth : 16 bits
    Compression mode : Lossy
    Stream size : 144 MiB (1%)
    Title : Commentary by film historian Scott Harrison
    Language : English
    Service kind : Complete Main
    Default : No
    Forced : No

    Text #1
    ID : 4
    Format : UTF-8
    Codec ID : S_TEXT/UTF8
    Codec ID/Info : UTF-8 Plain Text
    Duration : 1 h 38 min
    Bit rate : 52 b/s
    Count of elements : 847
    Stream size : 37.5 KiB (0%)
    Language : English
    Default : No
    Forced : No

    Text #2
    ID : 5
    Format : UTF-8
    Codec ID : S_TEXT/UTF8
    Codec ID/Info : UTF-8 Plain Text
    Duration : 1 h 38 min
    Bit rate : 74 b/s
    Count of elements : 1187
    Stream size : 54.2 KiB (0%)
    Language : English
    Default : No
    Forced : No

    Menu
    00:00:00.000 : :The Good Life
    00:06:30.347 : :The Morning Star
    00:13:24.720 : :Testimony
    00:20:49.497 : :Using Her Head
    00:27:35.695 : :A Christmas Present
    00:32:29.864 : :Conditional Parole
    00:40:23.670 : :School Records
    00:46:13.645 : :"Don't Go Anywhere"
    00:52:38.279 : :Angela Ryder
    00:58:45.271 : :Art Search
    01:06:18.432 : :Bachelor Auction
    01:15:22.058 : :The Red Umbrella
    01:21:16.245 : :Tourist Trap
    01:29:07.716 : :Number 3
    01:36:20.691 : :Matty
    01:40:31.358 : :End Credits

    mhd

    720p

    1080p https://www.hdvietnam.com/threads/h...uray-dd-5-1-x264-tayto-hiem-nguy-kep.1724422/

    Thuyết minh

    Remux https://hdvietnam.com/threads/hanh-...-avc-dts-hd-ma-5-1-pmp-hiem-nguy-kep.1717682/

    ISO
     
    haiphan68 and sexyca like this.
  2. Đang tải...


  3. xemaydinh

    xemaydinh Tem

    Tham gia ngày:
    3/7/10
    Bài viết:
    31,640
    Đã được cảm ơn:
    141,909

Chia sẻ trang này