[Hành động] Fighting for the Motherland 2020 1080p BluRay DTS x264-HDS- Tân Khí Tật

Thảo luận trong 'Fshare.vn' bắt đầu bởi xemaydinh, 22/10/21.

  1. xemaydinh

    xemaydinh Tem

    Tham gia ngày:
    3/7/10
    Bài viết:
    31,497
    Đã được cảm ơn:
    141,685
    phim mới ra bluray


    Fighting for the Motherland 2020 1080p BluRay DTS x264-HDS- Tân Khí Tật

    [​IMG]

    Fighting For The Motherland 1162 (2020)
    Trạng thái: Full Vietsub
    Đạo diễn: Trương Triệt

    Diễn viên: ghiêm Thế Khôi, Trịnh Vân lâm, Nam Sênh, Tạ Miêu

    Quốc Gia: Trung Quốc
    Năm sản xuất: 2020 | Thời lượng: 110 Phút
    Thể loại: Cổ Trang, Hành Động


    Tân khí Tật 1162 - Fighting For The Motherland 1162 (2020) là bộ phim thuộc thể loại cổ trang, hành động, có thời lượng 110 phút của đạo diễn Trương Triết và sự góp mặt của các diễn viên Nghiêm Thế Khôi, Trịnh Vân lâm, Nam Sênh, Tạ Miêu,... Nội dung phim Tân khí Tật 1162 - Fighting For The Motherland 1162 (2020) kể về khát vọng lớn lao thống nhất giang sơn xã tắc của Tân Khí Tật. Từ những cuộc khởi nghĩa nhân dân nhỏ lẻ rồi gia nhập vào nghĩa quân, từ một thư sinh trở thành một tướng quân tài giỏi, trong lòng vẫn chảy bỏng khát khao giữ báo đáp quê hương, đất nước.


    Fighting for the Motherland 2020 1080p BluRay DTS x264-HDS

    General Information:

    RELEASE.NAME...: Fighting for the Motherland 2020 1080p BluRay DTS x264-HDS
    RELEASE.DATE...: 09/01/2021
    RUN.TIME.......: 1:50:42.358 (h:m:s.ms)
    SIZE...........: 9.13 GiB
    CONTAINER......: Matroska
    VIDEO.CODEC....: x264, [email protected]
    BIT.DEPTH......: 8 bit
    FRAME.RATE.....: 23.976 fps
    BIT.RATE.......: 10.2 Mbps
    RESOLUTION.....: 1920 x 720
    AUDIO .........: Mandarin DTS 5.1 @ 1509 Kbps
    CHAPTERS.......: Included
    SUBTITLES......: CHS/CHT
    SOURCE.........: Fighting for the Motherland 2020 Blu-ray 1080p AVC DTS-HD MA [email protected](Thanks)
    RIPPER.........: [email protected]

    x264 Information
    x264 [info]: frame I:1285 Avg QP:13.60 size:221553
    x264 [info]: frame P:39004 Avg QP:14.88 size:100148
    x264 [info]: frame B:118968 Avg QP:15.87 size: 36379
    x264 [info]: consecutive B-frames: 4.5% 5.0% 10.5% 22.3% 12.4% 21.6% 8.4% 14.0% 1.3%
    x264 [info]: encoded 159257 frames, 23.72 fps, 10260.01 kb/s, 8124.2 MB

    Quote
    General
    Unique ID : 131428447971734125207026231899375114832 (0x62E032C70538C2EA0C72C4ED68059A50)
    Complete name : Fighting.for.the.Motherland.2020.1080p.BluRay.DTS.x264-HDS.mkv
    Format : Matroska
    Format version : Version 4
    File size : 9.13 GiB
    Duration : 1 h 50 min
    Overall bit rate : 11.8 Mb/s
    Movie name : Fighting for the Motherland 2020 1080p BluRay DTS x264-HDS
    Encoded date : UTC 2021-08-31 23:44:04
    Writing application : mkvmerge v38.0.0 ('The Silent Type') 64-bit
    Writing library : libebml v1.3.9 + libmatroska v1.5.2

    Video
    ID : 1
    Format : AVC
    Format/Info : Advanced Video Codec
    Format profile : [email protected]
    Format settings : CABAC / 5 Ref Frames
    Format settings, CABAC : Yes
    Format settings, Reference frames : 5 frames
    Codec ID : V_MPEG4/ISO/AVC
    Duration : 1 h 50 min
    Bit rate : 10.3 Mb/s
    Width : 1 920 pixels
    Height : 720 pixels
    Display aspect ratio : 2.667
    Frame rate mode : Constant
    Frame rate : 23.976 (24000/1001) FPS
    Color space : YUV
    Chroma subsampling : 4:2:0
    Bit depth : 8 bits
    Scan type : Progressive
    Bits/(Pixel*Frame) : 0.310
    Stream size : 7.93 GiB (87%)
    Title : [email protected]
    Default : Yes
    Forced : No

    Audio
    ID : 2
    Format : DTS
    Format/Info : Digital Theater Systems
    Codec ID : A_DTS
    Duration : 1 h 50 min
    Bit rate mode : Constant
    Bit rate : 1 509 kb/s
    Channel(s) : 6 channels
    Channel layout : C L R Ls Rs LFE
    Sampling rate : 48.0 kHz
    Frame rate : 93.750 FPS (512 SPF)
    Bit depth : 24 bits
    Compression mode : Lossy
    Stream size : 1.17 GiB (13%)
    Title : Mandarin
    Language : Chinese
    Default : Yes
    Forced : No

    Text #1
    ID : 3
    Format : PGS
    Muxing mode : zlib
    Codec ID : S_HDMV/PGS
    Codec ID/Info : Picture based subtitle format used on BDs/HD-DVDs
    Duration : 1 h 45 min
    Bit rate : 23.4 kb/s
    Count of elements : 3146
    Stream size : 17.7 MiB (0%)
    Title : CHS
    Language : Chinese
    Default : Yes
    Forced : No

    Text #2
    ID : 4
    Format : PGS
    Muxing mode : zlib
    Codec ID : S_HDMV/PGS
    Codec ID/Info : Picture based subtitle format used on BDs/HD-DVDs
    Duration : 1 h 45 min
    Bit rate : 24.6 kb/s
    Count of elements : 3146
    Stream size : 18.6 MiB (0%)
    Title : CHT
    Language : Chinese
    Default : No
    Forced : No

    Menu
    00:00:00.000 : en:Chapter 01
    00:09:08.298 : en:Chapter 02
    00:15:55.621 : en:Chapter 03
    00:27:40.158 : en:Chapter 04
    00:36:06.039 : en:Chapter 05
    00:46:24.907 : en:Chapter 06
    00:56:07.698 : en:Chapter 07
    01:08:04.414 : en:Chapter 08
    01:18:02.845 : en:Chapter 09
    01:26:53.208 : en:Chapter 10
    01:36:06.928 : en:Chapter 11
    01:44:36.812 : en:Chapter 12



    1080p https://www.hdvietnam.com/threads/h...080p-bluray-dts-x264-hds-tan-khi-tat.1724510/

    Remux https://www.hdvietnam.com/threads/h...blu-ray-avc-dts-hd-ma5-1-tan-khi-tat.1706365/
     
  2. Đang tải...


  3. xemaydinh

    xemaydinh Tem

    Tham gia ngày:
    3/7/10
    Bài viết:
    31,497
    Đã được cảm ơn:
    141,685

Chia sẻ trang này