[Hành động] Last Man Down 2021 BluRay 1080p AVC DTS-HD MA5.1-MTeam- Báo Thù

Thảo luận trong 'Bluray nguyên gốc' bắt đầu bởi xemaydinh, 18/10/21.

  1. xemaydinh

    xemaydinh Tem

    Tham gia ngày:
    3/7/10
    Bài viết:
    31,464
    Đã được cảm ơn:
    141,615
    Last Man Down 2021 BluRay 1080p AVC DTS-HD MA5.1-MTeam

    Báo Thù
    [​IMG]



    Genre : Action

    John Wood left the pieces of a broken civilisation behind, to go back to his roots in the woodland, after a virus pandemic struck the world.



    MOVIE iNFO
    GENRE.........:
    IMDB RATING...: N/A
    LINK..........: https://www.imdb.com/title/tt12335692/
    TRAILER.......:

    "General
    ID : 1 (0x1)
    Complete name : Jade.Over Run Over.E01.2016.HDTV.H264.1080i-HDCTV.ts
    Format : MPEG-TS
    File size : 3.06 GiB
    Duration : 43 min 55 s
    Overall bit rate mode : Variable
    Overall bit rate : 9 974 kb/s

    Video
    ID : 811 (0x32B)
    Menu ID : 1 (0x1)
    Format : AVC
    Format/Info : Advanced Video Codec
    Format profile : [email protected]
    Format settings : CABAC / 4 Ref Frames
    Format settings, CABAC : Yes
    Format settings, RefFrames : 4 frames
    Format settings, GOP : M=3, N=12
    Codec ID : 27
    Duration : 43 min 55 s
    Bit rate : 8 706 kb/s
    Width : 1 920 pixels
    Height : 1 080 pixels
    Display aspect ratio : 16:9
    Frame rate : 25.000 FPS
    Color space : YUV
    Chroma subsampling : 4:2:0
    Bit depth : 8 bits
    Scan type : MBAFF
    Scan type, store method : Separated fields
    Scan order : Top Field First
    Bits/(Pixel*Frame) : 0.168
    Stream size : 2.67 GiB (87%)
    Color range : Limited
    Color primaries : BT.709
    Transfer characteristics : BT.709
    Matrix coefficients : BT.709

    Audio #1
    ID : 812 (0x32C)
    Menu ID : 1 (0x1)
    Format : AC-3
    Format/Info : Audio Coding 3
    Format settings, Endianness : Big
    Codec ID : 6
    Duration : 43 min 55 s
    Bit rate mode : Constant
    Bit rate : 192 kb/s
    Channel(s) : 2 channels
    Channel positions : Front: L R
    Sampling rate : 48.0 kHz
    Frame rate : 31.250 FPS (1536 SPF)
    Bit depth : 16 bits
    Compression mode : Lossy
    Stream size : 60.3 MiB (2%)
    Service kind : Complete Main

    Audio #2
    ID : 813 (0x32D)
    Menu ID : 1 (0x1)
    Format : AC-3
    Format/Info : Audio Coding 3
    Format settings, Endianness : Big
    Codec ID : 6
    Duration : 43 min 55 s
    Bit rate mode : Constant
    Bit rate : 192 kb/s
    Channel(s) : 2 channels
    Channel positions : Front: L R
    Sampling rate : 48.0 kHz
    Frame rate : 31.250 FPS (1536 SPF)
    Bit depth : 16 bits
    Compression mode : Lossy
    Delay relative to video : -28 ms
    Stream size : 60.3 MiB (2%)
    Service kind : Complete Main

    Audio #3
    ID : 814 (0x32E)
    Menu ID : 1 (0x1)
    Format : AC-3
    Format/Info : Audio Coding 3
    Format settings, Endianness : Big
    Codec ID : 6
    Duration : 43 min 55 s
    Bit rate mode : Constant
    Bit rate : 384 kb/s
    Channel(s) : 6 channels
    Channel positions : Front: L C R, Side: L R, LFE
    Sampling rate : 48.0 kHz
    Frame rate : 31.250 FPS (1536 SPF)
    Bit depth : 16 bits
    Compression mode : Lossy
    Delay relative to video : -24 ms
    Stream size : 121 MiB (4%)
    Service kind : Complete Main

    Text #1
    ID : 815 (0x32F)
    Menu ID : 1 (0x1)
    Format : DVB Subtitle
    Codec ID : 6
    Duration : 43 min 32 s
    Delay relative to video : 2 s 108 ms
    Language : Chinese

    Text #2
    ID : 816 (0x330)
    Menu ID : 1 (0x1)
    Format : DVB Subtitle
    Codec ID : 6
    Duration : 43 min 33 s
    Delay relative to video : 1 s 828 ms
    Language : English

    Text #3
    ID : 817 (0x331)
    Menu ID : 1 (0x1)
    Format : DVB Subtitle
    Codec ID : 6
    Duration : 43 min 32 s
    Delay relative to video : 2 s 108 ms
    Language : chs

    Menu
    ID : 810 (0x32A)
    Menu ID : 1 (0x1)
    Duration DISC INFO:

    Disc Title: Last.Man.Down.2021.BluRay.1080p.AVC.DTS-HD.MA5.1-MTeam
    Disc Size: 22,953,659,097 bytes
    Protection: AACS
    BDInfo: 0.7.5.9 (compatible layout created by DVDFab 11.1.0.7)

    PLAYLIST REPORT:

    Name: 00001.MPLS
    Length: 1:27:47.095 (h:m:s.ms)
    Size: 21,101,961,216 bytes
    Total Bitrate: 32.05 Mbps

    VIDEO:

    Codec Bitrate Description
    ----- ------- -----------
    MPEG-4 AVC Video 27599 kbps 1080p / 23.976 fps / 16:9 / High Profile 4.1

    AUDIO:

    Codec Language Bitrate Description
    ----- -------- ------- -----------
    DTS-HD Master Audio English 2383 kbps 5.1 / 48 kHz / 2383 kbps / 16-bit (DTS Core: 5.1 / 48 kHz / 1509 kbps / 16-bit)
    Dolby Digital Audio English 384 kbps 2.0 / 48 kHz / 384 kbps

    SUBTITLES:

    Codec Language Bitrate Description
    ----- -------- ------- -----------
    Presentation Graphics English 25.145 kbps : 43 min 55 s
    List : 811 (0x32B) (AVC) / 812 (0x32C) (AC-3) / 813 (0x32D) (AC-3) / 814 (0x32E) (AC-3) / 815 (0x32F) (DVB Subtitle, Chinese) / 816 (0x330) (DVB Subtitle, English) / 817 (0x331) (DVB Subtitle, chs)
    Language : / / / / Chinese / English / chs
    UTC 2016-03-21 13:30:00 : en:Over Run Over#1[Can][PG] / en: / / / 01:00:00 / Running
    UTC 2016-03-21 14:30:00 : en:HK JEBN Presents:Do Did Eat[Can] / en: / / / 00:30:00 / Not running"



    mhd https://www.hdvietnam.com/threads/h...-m1080p-bluray-dd5-1x264-xmd-bao-thu.1721263/

    720p https://www.hdvietnam.com/threads/hanh-dong-last-man-down-2021-720p-bluray-x264-dts-bao-thu.1721266/

    1080p https://www.hdvietnam.com/threads/h...0p-bluray-dts-hd-ma-5-1-x264-bao-thu.1721262/

    Thuyết minh

    Remux https://www.hdvietnam.com/threads/h...-remux-avc-dts-hd-ma-5-1-fgt-bao-thu.1722905/

    ISO https://www.hdvietnam.com/threads/h...1080p-avc-dts-hd-ma5-1-mteam-bao-thu.1722894/
     
    Chỉnh sửa cuối: 18/10/21
    ngobinh123 and jegansamy like this.
  2. Đang tải...


  3. quan.198x

    quan.198x Well-Known Member

    Tham gia ngày:
    12/7/20
    Bài viết:
    923
    Đã được cảm ơn:
    408
    Giới tính:
    Nam
    lên
     
  4. buihuuphu

    buihuuphu New Member

    Tham gia ngày:
    15/3/09
    Bài viết:
    21
    Đã được cảm ơn:
    6
    Thank bạn
     

Chia sẻ trang này