[Hành động] Last Man Down 2021 m1080p BluRay DD5.1x264-XMD -Báo Thù

Thảo luận trong 'mHD, SD' bắt đầu bởi xemaydinh, 14/10/21.

  1. xemaydinh

    xemaydinh Tem

    Tham gia ngày:
    3/7/10
    Bài viết:
    31,346
    Đã được cảm ơn:
    141,383
    Last Man Down 2021 m1080p BluRay DD5.1x264-XMD

    Báo Thù
    [​IMG]



    Genre : Action

    John Wood left the pieces of a broken civilisation behind, to go back to his roots in the woodland, after a virus pandemic struck the world.


    Unique ID : 202417625949201839963058703228583175006 (0x9848377A393E686DB27C46BD7B6A635E)
    Complete name : C:\Last.Man.Down.2021.m1080p.BluRay.DD5.1x264-XMD.mkv
    Format : Matroska
    Format version : Version 4
    File size : 1.93 GiB
    Duration : 1 h 27 min
    Overall bit rate : 3 141 kb/s
    Encoded date : UTC 2021-10-14 03:40:46
    Writing application : mkvmerge v8.2.0 ('World of Adventure') 32bit
    Writing library : libebml v1.3.1 + libmatroska v1.4.2

    Video
    ID : 1
    Format : AVC
    Format/Info : Advanced Video Codec
    Format profile : [email protected]
    Format settings : CABAC / 4 Ref Frames
    Format settings, CABAC : Yes
    Format settings, Reference frames : 4 frames
    Codec ID : V_MPEG4/ISO/AVC
    Duration : 1 h 27 min
    Bit rate : 2 500 kb/s
    Width : 1 920 pixels
    Height : 752 pixels
    Display aspect ratio : 2.553
    Frame rate mode : Constant
    Frame rate : 23.976 (23976/1000) FPS
    Color space : YUV
    Chroma subsampling : 4:2:0
    Bit depth : 8 bits
    Scan type : Progressive
    Bits/(Pixel*Frame) : 0.072
    Stream size : 1.53 GiB (80%)
    Writing library : x264 core 152 r2851M ba24899
    Encoding settings : cabac=1 / ref=4 / deblock=1:-1:-1 / analyse=0x3:0x113 / me=umh / subme=9 / psy=1 / psy_rd=1.00:0.15 / mixed_ref=1 / me_range=24 / chroma_me=1 / trellis=2 / 8x8dct=1 / cqm=0 / deadzone=21,11 / fast_pskip=1 / chroma_qp_offset=-3 / threads=16 / lookahead_threads=4 / sliced_threads=0 / nr=0 / decimate=1 / interlaced=0 / bluray_compat=0 / constrained_intra=0 / bframes=3 / b_pyramid=2 / b_adapt=2 / b_bias=0 / direct=3 / weightb=1 / open_gop=0 / weightp=2 / keyint=250 / keyint_min=25 / scenecut=40 / intra_refresh=0 / rc_lookahead=50 / rc=2pass / mbtree=1 / bitrate=2500 / ratetol=1.0 / qcomp=0.60 / qpmin=0 / qpmax=69 / qpstep=4 / cplxblur=20.0 / qblur=0.5 / vbv_maxrate=31250 / vbv_bufsize=31250 / nal_hrd=none / filler=0 / ip_ratio=1.40 / aq=3:1.00
    Default : Yes
    Forced : No

    Audio
    ID : 2
    Format : AC-3
    Format/Info : Audio Coding 3
    Commercial name : Dolby Digital
    Codec ID : A_AC3
    Duration : 1 h 27 min
    Bit rate mode : Constant
    Bit rate : 640 kb/s
    Channel(s) : 6 channels
    Channel layout : L R C LFE Ls Rs
    Sampling rate : 48.0 kHz
    Frame rate : 31.250 FPS (1536 SPF)
    Compression mode : Lossy
    Delay relative to video : 78 ms
    Stream size : 402 MiB (20%)
    Title : Surround
    Language : English
    Service kind : Complete Main
    Default : Yes
    Forced : No




    mhd https://www.hdvietnam.com/threads/h...-m1080p-bluray-dd5-1x264-xmd-bao-thu.1721263/

    720p https://www.hdvietnam.com/threads/hanh-dong-last-man-down-2021-720p-bluray-x264-dts-bao-thu.1721266/

    1080p https://www.hdvietnam.com/threads/h...0p-bluray-dts-hd-ma-5-1-x264-bao-thu.1721262/

    Thuyết minh

    Remux https://www.hdvietnam.com/threads/h...-remux-avc-dts-hd-ma-5-1-fgt-bao-thu.1722905/

    ISO https://www.hdvietnam.com/threads/h...1080p-avc-dts-hd-ma5-1-mteam-bao-thu.1722894/
     
    Chỉnh sửa cuối: 18/10/21
  2. Đang tải...


Chia sẻ trang này