[Hành động] Twist 2021 720p US BluRay x264 DTS-MT - Siêu Trộm Đường Phố

Thảo luận trong 'Fshare.vn' bắt đầu bởi xemaydinh, 13/10/21.

  1. xemaydinh

    xemaydinh Tem

    Tham gia ngày:
    3/7/10
    Bài viết:
    31,368
    Đã được cảm ơn:
    141,445
    Twist 2021 720p US BluRay x264 DTS-MT
    Siêu Trộm Đường Phố
    [​IMG]


    Siêu Trộm Đường Phố - Twist (2021) dựa trên câu chuyện từ quyển tiểu thuyết kinh điển của Charles Dickens. Lấy bối cảnh London hiện đại xa hoa, nơi có một nhóm siêu trộm đường phố chuẩn bị lên kế hoạch đánh cắp mà giá trị hiện kim lên đến hàng trăm triệu đô la. Xen lẫn với nhiều pha hành động rượt đuổi trên đường phố, trong những tòa nhà trên khắp London là nhiều màn “tấu hài” của các tên trộm. Có thể nói bộ phim này chính là phiên bản thời hiện đại của Oliver Twist. Được đạo diễn bởi Martin Owen, với sự tham gia của các ngôi sao như: Raff Law, Rita Ora, Sir Michael Caine, Franz Drameh, Lena Headey, Sophie Simnett, David Walliams.


    Video
    ID : 1
    Format : AVC
    Format/Info : Advanced Video Codec
    Format profile : [email protected]
    Format settings : CABAC / 12 Ref Frames
    Format settings, CABAC : Yes
    Format settings, Reference frames : 12 frames
    Codec ID : V_MPEG4/ISO/AVC
    Duration : 1 h 32 min
    Bit rate : 4 551 kb/s
    Width : 1 280 pixels
    Height : 536 pixels
    Display aspect ratio : 2.40:1
    Frame rate mode : Constant
    Frame rate : 23.976 (24000/1001) FPS
    Color space : YUV
    Chroma subsampling : 4:2:0
    Bit depth : 8 bits
    Scan type : Progressive
    Bits/(Pixel*Frame) : 0.277
    Stream size : 2.95 GiB (75%)
    Writing library : x264 core 157 r2938 2b00a84 [email protected] Mod
    Encoding settings : cabac=1 / ref=12 / deblock=1:-3:-3 / analyse=0x3:0x133 / me=umh / subme=10 / psy=1 / psy_rd=1.05:0.00 / mixed_ref=1 / me_range=32 / chroma_me=1 / trellis=2 / 8x8dct=1 / cqm=0 / deadzone=21,11 / fast_pskip=0 / chroma_qp_offset=-2 / threads=12 / lookahead_threads=2 / sliced_threads=0 / nr=0 / decimate=0 / interlaced=0 / bluray_compat=0 / constrained_intra=0 / bframes=8 / b_pyramid=2 / b_adapt=2 / b_bias=0 / direct=3 / weightb=1 / open_gop=0 / weightp=2 / keyint=250 / keyint_min=24 / scenecut=40 / intra_refresh=0 / rc_lookahead=250 / rc=crf / mbtree=0 / crf=16.8 / qcomp=0.60 / qpmin=0 / qpmax=69 / qpstep=4 / vbv_maxrate=62500 / vbv_bufsize=78125 / crf_max=0.0 / nal_hrd=none / filler=0 / ip_ratio=1.30 / pb_ratio=1.20 / aq=3:0.80
    Language : English
    Default : Yes
    Forced : No
    Color range : Limited
    Color primaries : BT.709
    Matrix coefficients : BT.709

    Audio
    ID : 2
    Format : DTS
    Format/Info : Digital Theater Systems
    Codec ID : A_DTS
    Duration : 1 h 32 min
    Bit rate mode : Constant
    Bit rate : 1 509 kb/s
    Channel(s) : 6 channels
    Channel layout : C L R Ls Rs LFE
    Sampling rate : 48.0 kHz
    Frame rate : 93.750 FPS (512 SPF)
    Bit depth : 24 bits
    Compression mode : Lossy
    Stream size : 1 002 MiB (25%)
    Language : English
    Default : Yes
    Forced : No

    Text
    ID : 3
    Format : UTF-8
    Codec ID : S_TEXT/UTF8
    Codec ID/Info : UTF-8 Plain Text
    Duration : 1 h 28 min
    Bit rate : 66 b/s
    Count of elements : 1497
    Stream size : 43.0 KiB (0%)
    Title : SRT
    Language : English
    Default : Yes
    Forced : No

    Menu
    00:00:00.000 : Chapter 01
    00:05:35.835 : Chapter 02
    00:10:55.280 : Chapter 03
    00:15:54.370 : Chapter 04
    00:21:21.697 : Chapter 05
    00:27:59.177 : Chapter 06
    00:32:34.494 : Chapter 07
    00:39:00.630 : Chapter 08
    00:44:02.056 : Chapter 09
    00:47:24.675 : Chapter 10
    00:52:38.822 : Chapter 11
    00:59:46.625 : Chapter 12
    01:05:22.418 : Chapter 13
    01:13:03.462 : Chapter 14
    01:18:54.021 : Chapter 15
    01:25:48.143 : Chapter 16




    mhd https://www.fshare.vn/file/4D8PP2X96S9M

    720p https://www.hdvietnam.com/threads/h...uray-x264-dts-mt-sieu-trom-duong-pho.1720878/

    1080p https://www.hdvietnam.com/threads/h...hd-ma5-1-hdchina-sieu-trom-duong-pho.1720788/

    Thuyết minh

    Remux https://www.hdvietnam.com/threads/h...avc-dts-hd-ma5-1-sieu-trom-duong-pho.1721450/

    ISO https://www.hdvietnam.com/threads/h...hd-ma5-1-hdchina-sieu-trom-duong-pho.1720788/
     
    Chỉnh sửa cuối: 14/10/21
  2. Đang tải...


  3. heroes1412

    heroes1412 Active Member

    Tham gia ngày:
    1/6/10
    Bài viết:
    349
    Đã được cảm ơn:
    119
    đánh dấu chờ TM
     
  4. xemaydinh

    xemaydinh Tem

    Tham gia ngày:
    3/7/10
    Bài viết:
    31,368
    Đã được cảm ơn:
    141,445

Chia sẻ trang này