[Kinh Điển|Tâm lý|Tội phạm] La veuve Couderc 1971 DVD9 (BÀ GÓA COUDERC)

Thảo luận trong 'mHD, SD' bắt đầu bởi 5ti, 23/7/16.

  1. 5ti

    5ti Uploader

    Tham gia ngày:
    7/7/08
    Bài viết:
    1,480
    Đã được cảm ơn:
    12,159

    Phim do bạn QuynhChi giới thiệu và biên dịch phụ đề

    La veuve Couderc 1971 DVD9
    (BÀ GÓA COUDERC)

    [​IMG]


    Giới thiệu phim :
    Phim BÀ GÓA COUDERC ( tiếng Pháp : La veuve Couderc; tiếng Anh : The widow Couderc)
    Phim Pháp
    Năm sản xuất : 1971
    Đạo diễn : Pierre Granier-Deferre
    Kich bản : Georges Simenon (tiểu thuyết),Pierre Granier-Deferre (chuyển thế)
    Diễn viên :
    Alain Delon, Simone Signoret
    Thể loại : Tội phạm, tâm lý.
    IMDb rating : 7.1
    Tóm tắt nội dung :
    Cuộc sống của bà Couderc, một góa phụ trung niên, bị xáo trộn bởi sự có mặt của một thanh niên lạ đẹp trai, mà bà thuê làm người giúp việc cho trang trại của bà.

    (QuynhChi)

    MediaInfo
    Mã:
    Video
    ID                          : 1
    Format                      : MPEG Video
    Format version              : Version 2
    Format profile              : [email protected]
    Format settings, BVOP       : Yes
    Format settings, Matrix     : Custom
    Format settings, GOP        : M=3, N=15
    Format settings, picture st : Frame
    Codec ID                    : V_MPEG2
    Codec ID/Info               : MPEG 1 or 2 Video
    Duration                    : 1h 31mn
    Bit rate mode               : Variable
    Bit rate                    : 6 969 Kbps
    Maximum bit rate            : 9 800 Kbps
    Width                       : 720 pixels
    Height                      : 480 pixels
    Display aspect ratio        : 4:3
    Frame rate mode             : Variable
    Frame rate                  : 24.000 fps
    Original frame rate         : 29.970 (30000/1001) fps
    Color space                 : YUV
    Chroma subsampling          : 4:2:0
    Bit depth                   : 8 bits
    Scan type                   : Interlaced
    Scan order                  : Top Field First
    Compression mode            : Lossy
    Bits/(Pixel*Frame)          : 0.840
    Stream size                 : 4.45 GiB (97%)
    Default                     : Yes
    Forced                      : No
    Audio
    ID                          : 2
    Format                      : AC-3
    Format/Info                 : Audio Coding 3
    Mode extension              : CM (complete main)
    Format settings, Endianness : Big
    Codec ID                    : A_AC3
    Duration                    : 1h 31mn
    Bit rate mode               : Constant
    Bit rate                    : 192 Kbps
    Channel(s)                  : 1 channel
    Channel positions           : Front: C
    Sampling rate               : 48.0 KHz
    Frame rate                  : 31.250 fps (1536 spf)
    Compression mode            : Lossy
    Stream size                 : 126 MiB (3%)
    Language                    : French
    Default                     : Yes
    Forced                      : No
    



    Phụ đề tiếng Việt do bạn QuynhChi Biên dịch
    Xin cám ơn bạn nhiều

    https://subscene.com/subtitles/the-widow-couderc-la-veuve-couderc



    Tổng hợp các phim do Quynhchi biên dich

    *************************
     
    Chỉnh sửa cuối: 13/12/19
    siromua, zeldafan, Cong Bui and 15 others like this.
  2. Đang tải...


  3. 5ti

    5ti Uploader

    Tham gia ngày:
    7/7/08
    Bài viết:
    1,480
    Đã được cảm ơn:
    12,159
    REUP
     
    phammanhhung65 cảm ơn bài này.
  4. thaison230555

    thaison230555 Well-Known Member

    Tham gia ngày:
    23/3/10
    Bài viết:
    252
    Đã được cảm ơn:
    388
    Fim hay!
     
    5ti cảm ơn bài này.

Chia sẻ trang này