[MULTI] [Music] T-ARA Cry Cry & Lovey-Dovey Music Video Collection 2012 1080i Bluray AVC LPCM 2.0 - NetBD

Thảo luận trong 'HD Video Clip' bắt đầu bởi canodinh, 23/9/21.

  1. canodinh

    canodinh Active Member

    Tham gia ngày:
    10/9/11
    Bài viết:
    137
    Đã được cảm ơn:
    159
    T-ARA Cry Cry & Lovey-Dovey Music Video Collection 2012 1080i Bluray AVC LPCM 2.0 - NetBD
    [​IMG]




    DISC INFO:

    Disc Title: T-ARA_MUSIC_VIDEO_COLLECTION_2012_NETBD

    Disc Size: 23,215,352,179 bytes
    Protection: AACS
    BDInfo: 0.7.5.3 (compatible layout created by DVDFab 11.0.7.5)

    PLAYLIST REPORT:

    Name: 00002.MPLS
    Length: 1:37:34.815 (h:m:s.ms)
    Size: 22,713,692,160 bytes
    Total Bitrate: 31.04 Mbps

    VIDEO:

    Codec Bitrate Description
    ----- ------- -----------
    MPEG-4 AVC Video 27523 kbps 1080i / 29.970 fps / 16:9 / High Profile 4.1 /

    AUDIO:

    Codec Language Bitrate Description
    ----- -------- ------- -----------
    LPCM Audio Korean 1536 kbps 2.0 / 48 kHz / 1536 kbps / 16-bit

    SUBTITLES:

    Codec Language Bitrate Description
    ----- -------- ------- -----------
    Presentation Graphics Vietnamese 36.165 kbps
    Presentation Graphics Korean 108.003 kbps
    Presentation Graphics English 127.363 kbps
    Presentation Graphics Chinese 106.798 kbps

    FILES:

    Name Time In Length Size Total Bitrate
    ---- ------- ------ ---- -------------
    00001.M2TS 0:00:00.000 0:33:12.523 7,489,302,528 30,069 kbps
    00002.M2TS 0:33:12.523 0:03:30.476 820,629,504 31,191 kbps
    00003.M2TS 0:36:43.000 0:03:23.503 797,233,152 31,340 kbps
    00004.M2TS 0:40:06.504 0:06:49.842 1,630,986,240 31,836 kbps
    00005.M2TS 0:46:56.346 0:04:36.142 1,108,125,696 32,103 kbps
    00006.M2TS 0:51:32.489 0:03:34.047 860,663,808 32,167 kbps
    00007.M2TS 0:55:06.536 0:41:56.247 9,924,329,472 31,552 kbps
    00012.M2TS 1:37:02.783 0:00:13.013 3,538,944 2,175 kbps
    00008.M2TS 1:37:15.796 0:00:19.019 78,882,816 33,180 kbps


    [​IMG] [​IMG] [​IMG] [​IMG] [​IMG] [​IMG] [​IMG] [​IMG] [​IMG] [​IMG] [​IMG] [​IMG] [​IMG] [​IMG] [​IMG] [​IMG] [​IMG] [​IMG]

    mhd

    720p

    1080p

    Thuyết minh

    Remux

    ISO
     
    sharkvnlol and skillme like this.
  2. Đang tải...


Chia sẻ trang này