[Tôn giáo | Bí ẩn] Lourdes 2009 FRENCH 720p BluRay x264-CherryCoke ~ Linh địa Lộ Đức

Thảo luận trong 'Fshare.vn' bắt đầu bởi paulthanhson, 19/12/19.

  1. paulthanhson

    paulthanhson Well-Known Member

    Tham gia ngày:
    2/5/09
    Bài viết:
    686
    Đã được cảm ơn:
    7,693
    [​IMG]
    [​IMG]

    Phim lấy bối cảnh tại Lộ-Đức (thành phố thuộc miền nam nước Pháp), nơi đoàn hành hương Dòng Malta tổ chức cho các tín hữu và những bệnh nhân đến xin ơn chữa lành, trong đó có Christine. Nhưng chủ yếu nàng chỉ xem như một chuyến du lịch, có cơ hội biết thêm về một nét văn hoá và nhất là để tránh tâm trạng ức chế do chứng liệt toàn thân của mình. Dần dần, cả Christine và những người đồng hành đều thắc mắc phép lạ có thật hay không và tại sao lại xảy ra với người này mà không đến với người khác?

    Một bộ phim không dành cho những ai chuộng thể loại giải trí đơn thuần và đã nhận được giải Brian tại Liên hoan phim quốc tế lần thứ 66 tại Venise.


    [​IMG]
    [​IMG]

    [​IMG]

    [​IMG]
    [​IMG]
    [​IMG]
    [​IMG]
    [​IMG]
    [​IMG]

    Mã:
    Lourdes.2009.FRENCH.720p.BluRay.x264-CherryCoke.mkv
    Format                                   : Matroska
    Format version                           : Version 2
    
    
    File size                                : 5.20 GiB
    Duration                                 : 1 h 39 min
    Overall bit rate                         : 7 511 kb/s
    Encoded date                             : UTC 2019-12-12 12:53:19
    Writing application                      : mkvmerge v29.0.0 ('Like It Or Not') 64-bit
    Writing library                          : libebml v1.3.6 + libmatroska v1.4.9
    Video
    ID                                       : 1
    Format                                   : AVC
    Format/Info                              : Advanced Video Codec
    Format profile                           : [email protected]
    Format settings                          : CABAC / 9 Ref Frames
    Format settings, CABAC                   : Yes
    Format settings, Reference frames        : 9 frames
    Codec ID                                 : V_MPEG4/ISO/AVC
    Duration                                 : 1 h 39 min
    Bit rate                                 : 6 000 kb/s
    Width                                    : 1 280 pixels
    Height                                   : 692 pixels
    Display aspect ratio                     : 1.85:1
    Frame rate mode                          : Constant
    Frame rate                               : 24.000 FPS
    Color space                              : YUV
    Chroma subsampling                       : 4:2:0
    Bit depth                                : 8 bits
    Scan type                                : Progressive
    Bits/(Pixel*Frame)                       : 0.282
    Stream size                              : 4.16 GiB (80%)
    Writing library                          : x264 core 157 r2935 545de2f
    Encoding settings                        : cabac=1 / ref=9 / deblock=1:-3:-3 / analyse=0x3:0x133 / me=umh / subme=10 / psy=1 / psy_rd=1.00:0.00 / mixed_ref=1 / me_range=32 / chroma_me=1 / trellis=2 / 8x8dct=1 / cqm=0 / deadzone=21,11 / fast_pskip=1 / chroma_qp_offset=-2 / threads=6 / lookahead_threads=1 / sliced_threads=0 / nr=0 / decimate=1 / interlaced=0 / bluray_compat=0 / constrained_intra=0 / bframes=5 / b_pyramid=2 / b_adapt=2 / b_bias=0 / direct=3 / weightb=1 / open_gop=0 / weightp=2 / keyint=240 / keyint_min=24 / scenecut=40 / intra_refresh=0 / rc_lookahead=60 / rc=2pass / mbtree=1 / bitrate=6000 / ratetol=1.0 / qcomp=0.60 / qpmin=0 / qpmax=69 / qpstep=4 / cplxblur=20.0 / qblur=0.5 / vbv_maxrate=50000 / vbv_bufsize=50000 / nal_hrd=none / filler=0 / ip_ratio=1.40 / aq=1:1.00
    Default                                  : Yes
    Forced                                   : No
    Color range                              : Limited
    Color primaries                          : BT.709
    Transfer characteristics                 : BT.709
    Matrix coefficients                      : BT.709
    Audio
    ID                                       : 2
    Format                                   : DTS
    Format/Info                              : Digital Theater Systems
    Codec ID                                 : A_DTS
    Duration                                 : 1 h 39 min
    Bit rate mode                            : Constant
    Bit rate                                 : 1 509 kb/s
    Channel(s)                               : 5 channels
    Channel layout                           : C L R Ls Rs
    Sampling rate                            : 48.0 kHz
    Frame rate                               : 93.750 FPS (512 SPF)
    Bit depth                                : 24 bits
    Compression mode                         : Lossy
    Stream size                              : 1.05 GiB (20%)
    Title                                    : DTS 1509 k
    Language                                 : French
    Default                                  : Yes
    Forced                                   : No
    Source FULL BD
    IMDB https://www.imdb.com/title/tt1405809/
    Menu
    00:00:00.000                             : en:Chapter 1
    00:08:26.125                             : en:Chapter 2
    00:17:59.416                             : en:Chapter 3
    00:27:49.583                             : en:Chapter 4
    00:37:10.875                             : en:Chapter 5
    00:47:16.833                             : en:Chapter 6
    00:59:01.791                             : en:Chapter 7
    01:08:43.375                             : en:Chapter 8
    01:15:42.541                             : en:Chapter 9
    01:22:53.291                             : en:Chapter 10
    01:35:29.625                             : en:Chapter 11
    cập nhật link 26/4/2020

    Link tải phim
    Nhấn nút Cảm ơn (dưới chân bài) để thấy link!


     
    Chỉnh sửa cuối: 26/4/20
  2. Đang tải...


  3. thaison230555

    thaison230555 Well-Known Member

    Tham gia ngày:
    23/3/10
    Bài viết:
    252
    Đã được cảm ơn:
    388
    Xin cám ơn món quà Giáng Sinh của anh.
     
  4. Bui Le Huy

    Bui Le Huy New Member

    Tham gia ngày:
    15/11/19
    Bài viết:
    17
    Đã được cảm ơn:
    12
    Giới tính:
    Nam
    Thank bác chủ, nhìn qua có vẻ thấy phim khá hại não.
     
    paulthanhson cảm ơn bài này.
  5. paulthanhson

    paulthanhson Well-Known Member

    Tham gia ngày:
    2/5/09
    Bài viết:
    686
    Đã được cảm ơn:
    7,693
    11 tháng 2 năm 1858 Đức Mẹ hiện ra lần đầu tại Lộ Đức.
     
    bao0102 and Stormhdvn like this.
  6. Stormhdvn

    Stormhdvn Well-Known Member

    Tham gia ngày:
    31/3/12
    Bài viết:
    1,471
    Đã được cảm ơn:
    276
    Cám ơn chủ thớt ^^ , Phim thứ 2 thấy sau phim The Song Of Bernadette của bác trilhn . Good day :cool:
     
    paulthanhson cảm ơn bài này.
  7. Sweet-Heart

    Sweet-Heart Active Member

    Tham gia ngày:
    19/3/11
    Bài viết:
    750
    Đã được cảm ơn:
    235
    Bài viết được up lên 11/2/2020, thật ý nghĩa.
     
    Stormhdvn and paulthanhson like this.
  8. musicvn

    musicvn Member

    Tham gia ngày:
    7/2/18
    Bài viết:
    21
    Đã được cảm ơn:
    39
    Giới tính:
    Nam
    Bác chủ reup giúp em bộ phim này với ạ.
    Em cảm ơn nhiều.
     
  9. paulthanhson

    paulthanhson Well-Known Member

    Tham gia ngày:
    2/5/09
    Bài viết:
    686
    Đã được cảm ơn:
    7,693
    Cập nhật link fshare 26/4/2020
     
    musicvn and Sweet-Heart like this.
  10. musicvn

    musicvn Member

    Tham gia ngày:
    7/2/18
    Bài viết:
    21
    Đã được cảm ơn:
    39
    Giới tính:
    Nam
    Em chân thành cảm ơn bác chủ rất nhiều ạ.
    Chúc bác chủ và gia đình luôn mạnh khỏe, hạnh phúc và thành công trong cuộc sống ạ.
     

Chia sẻ trang này