[Fshare] [Võ Thuật] Once Upon A Time In China 1991 Remastered 1080p.Bluray.Valis - Hoàng Phi Hồng 1 (USLT)

Thảo luận trong 'Phim có audio Việt' bắt đầu bởi tamquocgia94, 15/5/20.

  1. tamquocgia94

    tamquocgia94 Well-Known Member

    Tham gia ngày:
    30/10/17
    Bài viết:
    1,348
    Đã được cảm ơn:
    48,477
    Giới tính:
    Nam
    Nghề nghiệp:
    Osin tổng thống
    Nơi ở:
    Dubai
    [​IMG]
    Mã:
    General
    Unique ID                   : 174350518624574953007956261063673771030 (0x832AB03F2ABDF844967444B0482BF416)
    Complete name               : C:\Users\tamquocgia\Downloads\Once.Upon.A.Time.In.China.1991.Remastered.Repack.1080p.Bluray.x264-Valis.mkv
    
    
    	

    Format : Matroska

    Format version : Version 4 / Version 2 File size : 14.3 GiB Duration : 2h 14mn Overall bit rate mode : Variable Overall bit rate : 15.3 Mbps Encoded date : UTC 2020-05-15 03:32:01 Writing application : mkvmerge v7.9.0 ('Birds') 32bit Writing library : libebml v1.3.1 + libmatroska v1.4.2 Video ID : 1 Format : AVC Format/Info : Advanced Video Codec Format profile : [email protected] Format settings, CABAC : Yes Format settings, ReFrames : 5 frames Codec ID : V_MPEG4/ISO/AVC Duration : 2h 14mn Bit rate : 13.7 Mbps Width : 1 920 pixels Height : 808 pixels Display aspect ratio : 2.40:1 Frame rate mode : Constant Frame rate : 23.976 (24000/1001) fps Color space : YUV Chroma subsampling : 4:2:0 Bit depth : 8 bits Scan type : Progressive Bits/(Pixel*Frame) : 0.369 Stream size : 12.9 GiB (90%) Writing library : x264 core 157 r2935 545de2f Encoding settings : cabac=1 / ref=5 / deblock=1:-3:-3 / analyse=0x3:0x133 / me=umh / subme=11 / psy=1 / psy_rd=1.00:0.00 / mixed_ref=1 / me_range=64 / chroma_me=1 / trellis=2 / 8x8dct=1 / cqm=0 / deadzone=21,11 / fast_pskip=0 / chroma_qp_offset=-2 / threads=9 / lookahead_threads=2 / sliced_threads=0 / nr=0 / decimate=1 / interlaced=0 / bluray_compat=0 / constrained_intra=0 / bframes=12 / b_pyramid=2 / b_adapt=2 / b_bias=0 / direct=3 / weightb=1 / open_gop=0 / weightp=2 / keyint=240 / keyint_min=23 / scenecut=40 / intra_refresh=0 / rc_lookahead=60 / rc=2pass / mbtree=0 / bitrate=13712 / ratetol=1.0 / qcomp=0.60 / qpmin=0 / qpmax=69 / qpstep=4 / cplxblur=20.0 / qblur=0.5 / vbv_maxrate=62500 / vbv_bufsize=78125 / nal_hrd=none / filler=0 / ip_ratio=1.40 / pb_ratio=1.30 / aq=1:0.70 Default : Yes Forced : No Audio #1 ID : 2 Format : AAC Format/Info : Advanced Audio Codec Format profile : LC Codec ID : A_AAC Duration : 2h 14mn Bit rate : 126 Kbps Channel(s) : 2 channels Channel positions : Front: L R Sampling rate : 44.1 KHz Frame rate : 43.066 fps (1024 spf) Compression mode : Lossy Stream size : 121 MiB (1%) Title : Lồng Tiếng - nlong86 by tamquocgia94.HDVN Language : Vietnamese Default : No Forced : No Audio #2 ID : 3 Format : FLAC Format/Info : Free Lossless Audio Codec Codec ID : A_FLAC Duration : 2h 14mn Bit rate mode : Variable Bit rate : 1 415 Kbps Channel(s) : 2 channels Channel positions : Front: L R Sampling rate : 48.0 KHz Frame rate : 11.719 fps (4096 spf) Bit depth : 24 bits Stream size : 1.33 GiB (9%) Title : Cantonese Stereo Writing library : libFLAC 1.2.1 (UTC 2007-09-17) Language : Chinese Default : Yes Forced : No Text ID : 4 Format : UTF-8 Codec ID : S_TEXT/UTF8 Codec ID/Info : UTF-8 Plain Text Duration : 2h 10mn Bit rate : 50 bps Count of elements : 1096 Stream size : 48.0 KiB (0%) Language : English Default : Yes Forced : No Menu 00:00:00.000 : :Chapter 01 00:08:50.822 : :Chapter 02 00:21:29.413 : :Chapter 03 00:33:02.272 : :Chapter 04 00:45:35.232 : :Chapter 05 00:54:46.992 : :Chapter 06 01:00:41.721 : :Chapter 07 01:07:39.055 : :Chapter 08 01:19:21.590 : :Chapter 09 01:31:40.078 : :Chapter 10 01:41:22.660 : :Chapter 11 01:51:58.003 : :Chapter 12 02:01:03.423 : :Chapter 13 02:11:56.325 : :Chapter 14
    Note: Mình chỉ bỏ thời gian mux lại công lớn của bác hoaitrung và bác nlong86
    Link Tải Phim

    Nhấn nút Cảm ơn (dưới chân bài) để thấy link!
     
    Chỉnh sửa cuối: 18/5/20
  2. Đang tải...


  3. nhaque93

    nhaque93 Member

    Tham gia ngày:
    16/3/12
    Bài viết:
    97
    Đã được cảm ơn:
    16
    Chào bạn tamquocgia94,
    Các link đều chết hết rồi, bạn lam on reup lại giùm nếu có thể.
    Cảm ơn bạn trước. :D:D:D
     

Chia sẻ trang này